<?xml version="1.0" standalone="no"?>
<!DOCTYPE svg PUBLIC "-//W3C//DTD SVG 1.1//EN" "http://www.w3.org/Graphics/SVG/1.1/DTD/svg11.dtd" >
<svg xmlns="http://www.w3.org/2000/svg" xmlns:xlink="http://www.w3.org/1999/xlink" version="1.1">
<metadata></metadata>
<defs>
<font id="tt_hovesregular" horiz-adv-x="1085" >
<font-face units-per-em="2048" ascent="1434" descent="-614" />
<missing-glyph horiz-adv-x="471" />
<glyph unicode="&#xfb01;" horiz-adv-x="1013" d="M51 881v143h164v195q0 79 49.5 126.5t134.5 47.5h164v-144h-133q-61 0 -61 -61v-164h491v-1024h-153v881h-338v-881h-154v881h-164zM696 1219v174h174v-174h-174z" />
<glyph unicode="&#xfb02;" horiz-adv-x="1003" d="M51 881v143h164v195q0 79 49.5 126.5t134.5 47.5h461v-1393h-153v1249h-277q-61 0 -61 -61v-164h194v-143h-194v-881h-154v881h-164z" />
<glyph unicode="&#xfb03;" horiz-adv-x="1505" d="M51 881v143h164v195q0 79 49.5 126.5t134.5 47.5h185v-144h-154q-61 0 -61 -61v-164h338v195q0 79 49.5 126.5t134.5 47.5h164v-144h-133q-62 0 -62 -61v-164h492v-1024h-154v881h-338v-881h-153v881h-338v-881h-154v881h-164zM1188 1219v174h174v-174h-174z" />
<glyph unicode="&#xfb04;" horiz-adv-x="1495" d="M51 881v143h164v195q0 79 49.5 126.5t134.5 47.5h185v-144h-154q-61 0 -61 -61v-164h338v195q0 79 49.5 126.5t134.5 47.5h461v-1393h-154v1249h-276q-62 0 -62 -61v-164h195v-143h-195v-881h-153v881h-338v-881h-154v881h-164z" />
<glyph horiz-adv-x="0" />
<glyph horiz-adv-x="682" />
<glyph horiz-adv-x="0" />
<glyph horiz-adv-x="0" />
<glyph unicode="&#xd;" horiz-adv-x="0" />
<glyph unicode=" "  horiz-adv-x="471" />
<glyph unicode="&#x09;" horiz-adv-x="471" />
<glyph unicode="&#xa0;" horiz-adv-x="471" />
<glyph unicode="!" horiz-adv-x="512" d="M164 0v184h184v-184h-184zM174 819v615h164v-615l-21 -491h-122z" />
<glyph unicode="&#x22;" horiz-adv-x="686" d="M113 1004v430h153v-430h-153zM420 1004v430h153v-430h-153z" />
<glyph unicode="#" horiz-adv-x="1402" d="M31 379l30 143h287l84 389h-289l31 144h289l80 379h153l-82 -379h318l82 379h153l-82 -379h287l-31 -144h-286l-84 -389h289l-31 -143h-289l-80 -379h-153l81 379h-317l-82 -379h-153l81 379h-286zM502 522h317l82 389h-317z" />
<glyph unicode="$" horiz-adv-x="1259" d="M92 420h164q0 -121 101 -204t278 -83q181 0 269.5 70.5t88.5 185.5q0 190 -245 236l-277 51q-348 65 -348 368q0 162 114.5 272.5t305.5 127.5v215h153v-215q202 -17 326.5 -134.5t124.5 -295.5h-164q0 121 -99 203.5t-270 82.5q-156 0 -241.5 -71.5t-85.5 -184.5 q0 -181 235 -225l226 -41q214 -38 311.5 -132t97.5 -257q0 -167 -123 -279.5t-338 -119.5v-215h-153v215q-204 24 -327.5 145t-123.5 285z" />
<glyph unicode="%" horiz-adv-x="1566" d="M82 1137q0 137 93 227t224 90q132 0 225 -90t93 -227t-93.5 -227.5t-224.5 -90.5t-224 90.5t-93 227.5zM225 1137q0 -83 51 -134t123 -51t123 51t51 134t-51 133.5t-123 50.5t-123 -50.5t-51 -133.5zM256 0l891 1434h164l-891 -1434h-164zM850 297q0 137 93 227t224 90 q132 0 225 -90t93 -227t-93 -227t-225 -90q-131 0 -224 90t-93 227zM993 297q0 -83 51 -133.5t123 -50.5t123 50.5t51 133.5t-51 133.5t-123 50.5t-123 -50.5t-51 -133.5z" />
<glyph unicode="&#x26;" horiz-adv-x="1290" d="M92 348q0 106 49.5 186.5t155.5 161.5l82 62l-92 102q-41 46 -62 75t-41 78.5t-20 102.5q0 146 104 242t264 96q159 0 264 -100t105 -248q0 -163 -194 -297l-113 -82l328 -348q24 37 45 84q47 112 47 213h153q0 -155 -67 -301q-26 -60 -66 -109l256 -266h-205l-143 154 q-47 -49 -113 -88q-144 -86 -297 -86q-202 0 -321 105t-119 263zM256 358q0 -96 74.5 -160.5t201.5 -64.5q94 0 162 33t135 100l-348 379l-71 -51q-82 -57 -118 -109t-36 -127zM328 1116q0 -47 17 -83.5t65 -90.5l92 -102l102 71q133 94 133 195q0 86 -56.5 140t-148.5 54 q-91 0 -147.5 -52.5t-56.5 -131.5z" />
<glyph unicode="'" horiz-adv-x="378" d="M113 1004v430h153v-430h-153z" />
<glyph unicode="(" horiz-adv-x="645" d="M143 543q0 531 287 952h164q-297 -419 -297 -952q0 -534 297 -953h-164q-287 421 -287 953z" />
<glyph unicode=")" horiz-adv-x="645" d="M51 -410q297 419 297 953q0 533 -297 952h164q287 -421 287 -952q0 -532 -287 -953h-164z" />
<glyph unicode="*" horiz-adv-x="942" d="M82 1096l41 133l287 -103l-11 308h144l-11 -308l287 103l41 -133l-287 -82l185 -236l-113 -92l-174 256l-174 -256l-113 92l185 236z" />
<glyph unicode="+" horiz-adv-x="1095" d="M102 522v144h369v399h154v-399h368v-144h-368v-399h-154v399h-369z" />
<glyph unicode="," horiz-adv-x="430" d="M92 -164l41 348h184l-92 -348h-133z" />
<glyph unicode="-" horiz-adv-x="839" d="M92 512v143h656v-143h-656z" />
<glyph unicode="." horiz-adv-x="430" d="M123 0v184h184v-184h-184z" />
<glyph unicode="/" horiz-adv-x="716" d="M0 -410l563 1905h154l-563 -1905h-154z" />
<glyph unicode="0" horiz-adv-x="1331" d="M113 717q0 176 44.5 318t121.5 232.5t176 138.5t211 48t211 -48t176 -138.5t121.5 -232.5t44.5 -318t-44.5 -318t-121.5 -232.5t-176 -138.5t-211 -48t-211 48t-176 138.5t-121.5 232.5t-44.5 318zM276 717q0 -141 32 -254t86.5 -184t124 -108.5t147.5 -37.5t147.5 37.5 t123.5 108.5t86 184t32 254t-32 254t-86 183.5t-123.5 108t-147.5 37.5t-147.5 -37.5t-124 -108t-86.5 -183.5t-32 -254z" />
<glyph unicode="1" horiz-adv-x="686" d="M51 1126v144h246q61 0 61 61v103h164v-1434h-164v1126h-307z" />
<glyph unicode="2" horiz-adv-x="1095" d="M102 993q0 200 124.5 330.5t316.5 130.5q193 0 316.5 -119.5t123.5 -310.5q0 -120 -43 -203t-131 -176l-461 -481v-10h666v-154h-901v133l583 625q67 72 95 128.5t28 137.5q0 123 -76.5 199.5t-199.5 76.5q-118 0 -197.5 -85.5t-79.5 -221.5h-164z" />
<glyph unicode="3" horiz-adv-x="1126" d="M72 379h164q0 -104 83 -175t224 -71q136 0 221.5 73.5t85.5 182.5q0 118 -84.5 192t-222.5 74h-92v154h92q135 0 210.5 71.5t75.5 180.5q0 99 -79.5 169t-206.5 70q-121 0 -204 -70.5t-83 -164.5h-164q0 158 127.5 273.5t323.5 115.5q198 0 324 -113.5t126 -283.5 q0 -150 -112 -250q-52 -46 -113 -70v-10q70 -27 123 -74q123 -107 123 -264q0 -170 -133.5 -289.5t-337.5 -119.5q-106 0 -195 32t-149 86.5t-93.5 127t-33.5 153.5z" />
<glyph unicode="4" horiz-adv-x="1105" d="M41 328v123l563 983h266v-963h185v-143h-185v-328h-163v328h-666zM246 471h461v748h-41l-420 -738v-10z" />
<glyph unicode="5" horiz-adv-x="1157" d="M92 379h164q23 -116 106 -181t201 -65q138 0 233 96t95 238q0 148 -89 240t-229 92q-181 0 -276 -123h-174l82 758h768v-154h-631l-45 -420h10q105 92 287 92q91 0 175.5 -37t147.5 -100.5t100.5 -154.5t37.5 -193q0 -212 -138.5 -349.5t-353.5 -137.5q-184 0 -315.5 106 t-155.5 293z" />
<glyph unicode="6" horiz-adv-x="1146" d="M82 461q0 73 24 148.5t58 127.5l450 697h185l-338 -533h10l39 10q46 11 94 11q127 0 232.5 -59t167 -165.5t61.5 -236.5q0 -200 -143 -340.5t-349 -140.5t-348.5 140.5t-142.5 340.5zM246 461q0 -138 94.5 -233t232.5 -95t233 95t95 233t-95 232.5t-233 94.5 t-232.5 -94.5t-94.5 -232.5z" />
<glyph unicode="7" horiz-adv-x="1013" d="M51 1280v154h901v-134l-512 -1300h-174l504 1280h-719z" />
<glyph unicode="8" horiz-adv-x="1146" d="M102 389q0 161 113 270q53 53 113 78v11q-57 31 -99 73q-96 96 -96 234q0 169 125 284t315 115t315.5 -115t125.5 -284q0 -135 -99 -234q-42 -42 -96 -73v-11q57 -25 113 -78q112 -112 112 -270q0 -80 -34 -154t-94 -130.5t-149.5 -90.5t-193.5 -34q-105 0 -195 33.5 t-149.5 90t-93 130.5t-33.5 155zM266 399q0 -115 88 -190.5t219 -75.5t219.5 75.5t88.5 190.5t-88.5 191t-219.5 76t-219 -76t-88 -191zM297 1055q0 -104 75 -175t201 -71t201.5 71t75.5 175t-75.5 174.5t-201.5 70.5t-201 -70.5t-75 -174.5z" />
<glyph unicode="9" horiz-adv-x="1146" d="M82 973q0 200 142.5 340.5t348.5 140.5t349 -140.5t143 -340.5q0 -73 -24 -149t-58 -128l-451 -696h-184l338 532h-10q-17 -7 -39 -10q-45 -10 -94 -10q-127 0 -232.5 59t-167 165.5t-61.5 236.5zM246 973q0 -138 94.5 -233t232.5 -95t233 95t95 233t-95 232.5t-233 94.5 t-232.5 -94.5t-94.5 -232.5z" />
<glyph unicode=":" horiz-adv-x="430" d="M123 0v184h184v-184h-184zM123 840v184h184v-184h-184z" />
<glyph unicode=";" horiz-adv-x="430" d="M92 -164l41 348h184l-92 -348h-133zM133 840v184h184v-184h-184z" />
<glyph unicode="&#x3c;" horiz-adv-x="1095" d="M113 522v144l870 378v-153l-707 -297l707 -297v-154z" />
<glyph unicode="=" horiz-adv-x="1075" d="M143 348v144h789v-144h-789zM143 696v144h789v-144h-789z" />
<glyph unicode="&#x3e;" horiz-adv-x="1095" d="M113 143v154l706 297l-706 297v153l870 -378v-144z" />
<glyph unicode="?" horiz-adv-x="1034" d="M51 1055q0 170 126.5 284.5t324.5 114.5t324 -120t126 -300q0 -262 -235 -379q-86 -41 -115 -88t-29 -116v-123h-163v123q0 121 50 193t175 134q153 76 153 256q0 115 -81.5 190.5t-204.5 75.5q-127 0 -207 -71t-80 -174h-164zM399 0v184h185v-184h-185z" />
<glyph unicode="@" horiz-adv-x="1894" d="M123 604q0 173 62 323.5t170.5 257t260.5 167.5t326 61q189 0 349 -61.5t269.5 -167.5t170.5 -250.5t61 -308.5q0 -228 -96 -344.5t-252 -116.5q-109 0 -178 65q-33 29 -47 68h-11q-39 -46 -75 -68q-100 -65 -224 -65q-178 0 -292.5 119.5t-114.5 310.5t115.5 310.5 t293.5 119.5q122 0 207 -61q40 -29 60 -62h10l20 103h133v-584q0 -53 27.5 -83t75.5 -30q194 0 194 318q0 137 -50.5 256t-140.5 205t-220.5 135t-284.5 49q-192 0 -344 -85t-237 -237t-85 -344q0 -188 82.5 -334.5t234.5 -228.5t349 -82h420v-143h-420q-182 0 -336 60 t-259.5 164.5t-164.5 250t-59 313.5zM655 594q0 -129 74.5 -208t192.5 -79t192 79t74 208t-74 208t-192 79t-192.5 -79t-74.5 -208z" />
<glyph unicode="A" horiz-adv-x="1331" d="M0 0l543 1434h245l543 -1434h-174l-133 369h-717l-133 -369h-174zM369 522h594l-277 738h-41z" />
<glyph unicode="B" horiz-adv-x="1310" d="M164 0v1434h614q162 0 275.5 -116.5t113.5 -283.5q0 -136 -77 -233q-34 -43 -76 -74v-10q48 -26 86 -70q88 -100 88 -248q0 -168 -113.5 -283.5t-275.5 -115.5h-635zM328 154h471q92 0 158.5 70.5t66.5 174.5t-66.5 175t-158.5 71h-471v-491zM328 788h450q92 0 159 71 t67 175t-67 175t-159 71h-450v-492z" />
<glyph unicode="C" horiz-adv-x="1495" d="M102 717q0 161 54.5 300t147 234t218.5 149t266 54q230 0 402 -130t233 -351h-174q-54 153 -176.5 240t-284.5 87q-143 0 -262 -72t-189.5 -206t-70.5 -305q0 -128 41.5 -238.5t112 -185.5t166 -117.5t202.5 -42.5q162 0 284.5 89t176.5 249h174q-61 -228 -232.5 -359.5 t-402.5 -131.5q-140 0 -266 54t-218.5 149t-147 234t-54.5 300z" />
<glyph unicode="D" horiz-adv-x="1433" d="M164 0v1434h481q197 0 353.5 -91.5t244.5 -255.5t88 -370t-88 -370t-244.5 -255.5t-353.5 -91.5h-481zM328 154h317q225 0 373.5 157t148.5 406t-148.5 406t-373.5 157h-317v-1126z" />
<glyph unicode="E" horiz-adv-x="1198" d="M164 0v1434h921v-154h-757v-481h716v-154h-716v-491h757v-154h-921z" />
<glyph unicode="F" horiz-adv-x="1157" d="M164 0v1434h901v-154h-737v-481h696v-154h-696v-645h-164z" />
<glyph unicode="G" horiz-adv-x="1576" d="M102 717q0 161 54.5 300t147 234t218.5 149t266 54q217 0 392 -122.5t243 -327.5h-174q-61 137 -186.5 216.5t-274.5 79.5q-143 0 -262 -72t-189.5 -206t-70.5 -305q0 -128 41.5 -238.5t112 -185.5t166 -117.5t202.5 -42.5q125 0 237 62.5t178.5 164.5t66.5 213v21h-430 v143h594v-737h-134l-20 205h-10q-48 -59 -125 -113q-161 -112 -357 -112q-140 0 -266 54t-218.5 149t-147 234t-54.5 300z" />
<glyph unicode="H" horiz-adv-x="1454" d="M164 0v1434h164v-635h798v635h164v-1434h-164v645h-798v-645h-164z" />
<glyph unicode="I" horiz-adv-x="491" d="M164 0v1434h164v-1434h-164z" />
<glyph unicode="J" horiz-adv-x="788" d="M20 0v154h349q47 0 74.5 27.5t27.5 74.5v1178h164v-1198q0 -111 -62.5 -173.5t-183.5 -62.5h-369z" />
<glyph unicode="K" horiz-adv-x="1177" d="M164 0v1434h164v-676l604 676h205l-635 -707l676 -727h-205l-645 696v-696h-164z" />
<glyph unicode="L" d="M164 0v1434h164v-1280h716v-154h-880z" />
<glyph unicode="M" horiz-adv-x="1843" d="M164 0v1434h297l440 -1250h41l440 1250h297v-1434h-163v1219h-41l-431 -1219h-245l-430 1219h-41v-1219h-164z" />
<glyph unicode="N" horiz-adv-x="1454" d="M164 0v1434h276l645 -1239h41v1239h164v-1434h-276l-645 1239h-41v-1239h-164z" />
<glyph unicode="O" horiz-adv-x="1576" d="M102 717q0 161 54.5 300t147 234t218.5 149t266 54t266 -54t219 -149t147.5 -234t54.5 -300t-54.5 -300t-147.5 -234t-219 -149t-266 -54t-266 54t-218.5 149t-147 234t-54.5 300zM266 717q0 -128 41.5 -238.5t112 -185.5t166 -117.5t202.5 -42.5t202.5 42.5t166.5 117.5 t112.5 185.5t41.5 238.5t-41.5 238t-112.5 185t-166.5 117.5t-202.5 42.5q-143 0 -262 -72t-189.5 -206t-70.5 -305z" />
<glyph unicode="P" horiz-adv-x="1300" d="M164 0v1434h624q170 0 290 -126t120 -315t-120 -314.5t-290 -125.5h-460v-553h-164zM328 707h460q103 0 174.5 79.5t71.5 206.5t-71.5 207t-174.5 80h-460v-573z" />
<glyph unicode="Q" horiz-adv-x="1576" d="M102 717q0 161 54.5 300t147 234t218.5 149t266 54t266 -54t219 -149t147.5 -234t54.5 -300q0 -338 -205 -543l205 -194h-205l-113 112q-44 -33 -100 -57q-112 -55 -269 -55q-140 0 -266 54t-218.5 149t-147 234t-54.5 300zM266 717q0 -128 41.5 -238.5t112 -185.5 t166 -117.5t202.5 -42.5q106 0 189 31q33 11 67 31l-348 337h205l256 -245q79 88 116.5 190.5t37.5 239.5q0 128 -41.5 238t-112.5 185t-166.5 117.5t-202.5 42.5q-143 0 -262 -72t-189.5 -206t-70.5 -305z" />
<glyph unicode="R" horiz-adv-x="1310" d="M164 0v1434h624q170 0 290 -126t120 -315t-120 -314.5t-290 -125.5h-133l574 -553h-205l-573 553h-123v-553h-164zM328 707h460q103 0 174.5 79.5t71.5 206.5t-71.5 207t-174.5 80h-460v-573z" />
<glyph unicode="S" horiz-adv-x="1259" d="M92 420h164q0 -121 101 -204t278 -83q181 0 269.5 70.5t88.5 185.5q0 190 -245 236l-277 51q-348 65 -348 368q0 180 133 295t358 115q241 0 387 -125.5t146 -314.5h-164q0 121 -99 203.5t-270 82.5q-156 0 -241.5 -71.5t-85.5 -184.5q0 -181 235 -225l226 -41 q214 -38 311.5 -132t97.5 -257q0 -182 -137.5 -295.5t-384.5 -113.5q-123 0 -226.5 35.5t-172 96t-106.5 140t-38 168.5z" />
<glyph unicode="T" horiz-adv-x="1208" d="M51 1280v154h1106v-154h-471v-1280h-164v1280h-471z" />
<glyph unicode="U" horiz-adv-x="1413" d="M143 563v871h164v-871q0 -190 114.5 -310t285.5 -120q170 0 284.5 120.5t114.5 309.5v871h164v-871q0 -129 -43.5 -238.5t-118.5 -184.5t-178.5 -117.5t-222.5 -42.5q-159 0 -287 72t-202.5 206t-74.5 305z" />
<glyph unicode="V" horiz-adv-x="1331" d="M20 1434h175l450 -1260h41l451 1260h174l-523 -1434h-245z" />
<glyph unicode="W" horiz-adv-x="2007" d="M31 1434h174l307 -1260h41l328 1260h245l328 -1260h41l307 1260h174l-358 -1434h-287l-307 1198h-41l-307 -1198h-287z" />
<glyph unicode="X" horiz-adv-x="1269" d="M20 0l502 737l-471 697h185l378 -564h41l379 564h185l-471 -697l501 -737h-184l-410 604h-41l-409 -604h-185z" />
<glyph unicode="Y" horiz-adv-x="1208" d="M0 1434h174l410 -707h41l409 707h174l-522 -891v-543h-164v543z" />
<glyph unicode="Z" horiz-adv-x="1177" d="M72 0v133l819 1147h-809v154h1014v-134l-820 -1146h830v-154h-1034z" />
<glyph unicode="[" horiz-adv-x="645" d="M164 -410v1905h409v-143h-256v-1618h256v-144h-409z" />
<glyph unicode="\" horiz-adv-x="716" d="M0 1495h154l563 -1905h-154z" />
<glyph unicode="]" horiz-adv-x="645" d="M72 -266h256v1618h-256v143h409v-1905h-409v144z" />
<glyph unicode="^" horiz-adv-x="829" d="M113 881l225 553h154l225 -553h-144l-153 399h-10l-154 -399h-143z" />
<glyph unicode="_" horiz-adv-x="737" d="M-41 -205h819v-143h-819v143z" />
<glyph unicode="`" horiz-adv-x="501" d="M61 1505h185l194 -286h-143z" />
<glyph unicode="a" d="M102 297q0 154 101 241t309 87h276v30q0 117 -64 181.5t-181 64.5q-112 0 -180 -50.5t-76 -123.5h-154q8 131 117.5 224t292.5 93q187 0 293 -102t106 -287v-655h-133l-21 123h-10q-29 -44 -73 -72q-93 -71 -244 -71q-160 0 -259.5 88.5t-99.5 228.5zM256 297 q0 -80 53.5 -127t151.5 -47q153 0 240 84.5t87 232.5v41h-276q-131 0 -193.5 -51t-62.5 -133z" />
<glyph unicode="b" horiz-adv-x="1198" d="M154 0v1434h153v-553h10q129 163 328 163q203 0 337 -148.5t134 -383.5t-134 -383.5t-337 -148.5q-199 0 -328 163h-10l-20 -143h-133zM307 512q0 -172 96.5 -280.5t231.5 -108.5t231.5 108.5t96.5 280.5t-96.5 280.5t-231.5 108.5t-231.5 -108.5t-96.5 -280.5z" />
<glyph unicode="c" d="M82 512q0 117 38 216.5t104 168.5t156 108t193 39q170 0 291.5 -93.5t159.5 -254.5h-154q-30 99 -108.5 152t-188.5 53q-143 0 -240 -108t-97 -281t97 -281t240 -108q111 0 189 54.5t108 160.5h154q-38 -169 -158.5 -263.5t-292.5 -94.5q-103 0 -193 39t-156 108 t-104 168.5t-38 216.5z" />
<glyph unicode="d" horiz-adv-x="1198" d="M82 512q0 235 134 383.5t337 148.5q199 0 328 -163h10v553h153v-1434h-133l-20 143h-10q-129 -163 -328 -163q-203 0 -337 148.5t-134 383.5zM236 512q0 -172 96 -280.5t231 -108.5t231.5 108.5t96.5 280.5t-96.5 280.5t-231.5 108.5t-231 -108.5t-96 -280.5z" />
<glyph unicode="e" horiz-adv-x="1126" d="M82 512q0 117 38 216.5t104 168.5t156 108t193 39q202 0 336.5 -138.5t134.5 -352.5q0 -34 -6 -88l-4 -25h-798q17 -144 111.5 -230.5t225.5 -86.5q93 0 166 43t111 121h164q-54 -148 -167 -227.5t-274 -79.5q-103 0 -193 39t-156 108t-104 168.5t-38 216.5zM236 584h655 q-7 139 -97 228t-221 89q-138 0 -228.5 -87.5t-108.5 -229.5z" />
<glyph unicode="f" horiz-adv-x="634" d="M51 881v143h164v195q0 79 49.5 126.5t134.5 47.5h185v-144h-154q-61 0 -61 -61v-164h215v-143h-215v-881h-154v881h-164z" />
<glyph unicode="g" horiz-adv-x="1187" d="M82 543q0 221 134 361t337 140q98 0 185.5 -41.5t142.5 -111.5h10l20 133h133v-1024q0 -194 -123.5 -312t-336.5 -118q-105 0 -192 29.5t-143.5 79t-89 111.5t-36.5 128h153q8 -85 88.5 -145t219.5 -60q140 0 223.5 78.5t83.5 208.5v184h-10q-127 -143 -328 -143 q-203 0 -337 140.5t-134 361.5zM236 543q0 -159 93.5 -259t233.5 -100t234 100t94 259t-94 258.5t-234 99.5t-233.5 -99.5t-93.5 -258.5z" />
<glyph unicode="h" horiz-adv-x="1177" d="M154 0v1434h153v-523h10q33 41 76 66q104 67 232 67q178 0 293.5 -119.5t115.5 -310.5v-614h-153v614q0 122 -80.5 204.5t-196.5 82.5q-122 0 -209.5 -85.5t-87.5 -201.5v-614h-153z" />
<glyph unicode="i" horiz-adv-x="460" d="M143 1239v174h174v-174h-174zM154 0v1024h153v-1024h-153z" />
<glyph unicode="j" horiz-adv-x="460" d="M-61 -266h153q62 0 62 61v1229h153v-1260q0 -79 -49.5 -126.5t-134.5 -47.5h-184v144zM143 1239v174h174v-174h-174z" />
<glyph unicode="k" horiz-adv-x="983" d="M154 0v1434h153v-881l461 471h195l-492 -502l512 -522h-195l-481 492v-492h-153z" />
<glyph unicode="l" horiz-adv-x="460" d="M154 0v1434h153v-1434h-153z" />
<glyph unicode="m" horiz-adv-x="1730" d="M143 0v1024h133l21 -113h10q31 39 72 66q95 67 194 67q134 0 230 -88q41 -38 67 -86h11q36 52 84 86q113 88 254 88q161 0 264.5 -111.5t103.5 -287.5v-645h-153v645q0 117 -63.5 186.5t-172.5 69.5q-101 0 -178.5 -75t-77.5 -181v-645h-154v645q0 117 -63.5 186.5 t-171.5 69.5q-101 0 -178.5 -75t-77.5 -181v-645h-154z" />
<glyph unicode="n" horiz-adv-x="1167" d="M143 0v1024h133l21 -113h10q33 41 76 66q104 67 231 67q178 0 294 -119.5t116 -310.5v-614h-154v614q0 122 -80 204.5t-196 82.5q-122 0 -209.5 -85.5t-87.5 -201.5v-614h-154z" />
<glyph unicode="o" horiz-adv-x="1146" d="M82 512q0 117 38 216.5t104 168.5t156 108t193 39q137 0 249 -66t177.5 -188.5t65.5 -277.5t-65.5 -277.5t-177.5 -188.5t-249 -66q-103 0 -193 39t-156 108t-104 168.5t-38 216.5zM236 512q0 -173 97 -281t240 -108t240.5 108t97.5 281t-97.5 281t-240.5 108t-240 -108 t-97 -281z" />
<glyph unicode="p" horiz-adv-x="1187" d="M143 -410v1434h133l21 -143h10q129 163 328 163q203 0 337 -148.5t134 -383.5t-134 -383.5t-337 -148.5q-199 0 -328 163h-10v-553h-154zM297 512q0 -172 96.5 -280.5t231.5 -108.5t231 108.5t96 280.5t-96 280.5t-231 108.5t-231.5 -108.5t-96.5 -280.5z" />
<glyph unicode="q" horiz-adv-x="1187" d="M82 512q0 235 134 383.5t337 148.5q199 0 328 -163h10l20 143h133v-1434h-153v553h-10q-129 -163 -328 -163q-203 0 -337 148.5t-134 383.5zM236 512q0 -172 96 -280.5t231 -108.5t231.5 108.5t96.5 280.5t-96.5 280.5t-231.5 108.5t-231 -108.5t-96 -280.5z" />
<glyph unicode="r" horiz-adv-x="696" d="M143 0v1024h133l21 -102h10q36 52 76.5 77t118.5 25h174v-143h-154q-109 0 -167 -58.5t-58 -167.5v-655h-154z" />
<glyph unicode="s" horiz-adv-x="942" d="M61 297h154q0 -73 69 -123.5t187 -50.5t182 44t64 109q0 62 -41.5 99.5t-132.5 54.5l-174 31q-287 48 -287 287q0 129 98 212.5t281 83.5q178 0 288.5 -94t110.5 -223h-153q0 72 -66.5 123t-179.5 51q-111 0 -168 -43.5t-57 -109.5q0 -57 37 -92t126 -52l174 -31 q153 -29 225 -101.5t72 -195.5q0 -130 -103 -213t-296 -83q-185 0 -297.5 94t-112.5 223z" />
<glyph unicode="t" horiz-adv-x="696" d="M51 881v143h164v287h154v-287h235v-143h-235v-676q0 -62 61 -62h174v-143h-205q-85 0 -134.5 47.5t-49.5 126.5v707h-164z" />
<glyph unicode="u" horiz-adv-x="1167" d="M143 410v614h154v-614q0 -122 80 -204.5t196 -82.5q122 0 209.5 85.5t87.5 201.5v614h154v-1024h-133l-21 113h-10q-38 -45 -78 -68q-100 -65 -229 -65q-178 0 -294 119.5t-116 310.5z" />
<glyph unicode="v" horiz-adv-x="1024" d="M20 1024h164l308 -860h40l308 860h164l-369 -1024h-246z" />
<glyph unicode="w" horiz-adv-x="1617" d="M31 1024h164l225 -860h41l225 860h246l225 -860h41l225 860h164l-276 -1024h-267l-215 829h-41l-215 -829h-266z" />
<glyph unicode="x" horiz-adv-x="983" d="M20 0l349 522l-338 502h184l256 -389h41l256 389h184l-338 -502l349 -522h-185l-266 410h-41l-266 -410h-185z" />
<glyph unicode="y" horiz-adv-x="1013" d="M20 1024h164l318 -850h41l286 850h164l-461 -1290q-26 -76 -68.5 -110t-125.5 -34h-205v144h195q51 0 71 61l41 123z" />
<glyph unicode="z" horiz-adv-x="880" d="M51 0v133l574 748h-564v143h758v-133l-573 -748h583v-143h-778z" />
<glyph unicode="{" horiz-adv-x="645" d="M113 461v164q60 0 96.5 32t36.5 80v533q0 100 62.5 162.5t162.5 62.5h102v-133h-81q-93 0 -93 -92v-533q0 -103 -82 -149q-40 -22 -81 -25v-41q45 -6 81 -26q82 -46 82 -148v-532q0 -92 93 -92h81v-134h-102q-100 0 -162.5 63t-62.5 163v532q0 48 -36.5 80.5t-96.5 32.5z " />
<glyph unicode="|" horiz-adv-x="645" d="M246 -410v1905h153v-1905h-153z" />
<glyph unicode="}" horiz-adv-x="645" d="M72 -276h82q92 0 92 92v532q0 102 82 148q36 20 82 26v41q-42 3 -82 25q-82 46 -82 149v533q0 92 -92 92h-82v133h102q100 0 162.5 -62.5t62.5 -162.5v-533q0 -48 36.5 -80t96.5 -32v-164q-60 0 -96.5 -32.5t-36.5 -80.5v-532q0 -100 -62.5 -163t-162.5 -63h-102v134z " />
<glyph unicode="~" horiz-adv-x="1157" d="M92 399q0 161 78.5 249.5t218.5 88.5q54 0 101.5 -21t81.5 -51t64.5 -60.5t64.5 -51.5t67 -21q143 0 143 195h154q0 -161 -78.5 -249.5t-218.5 -88.5q-53 0 -101 21t-82 51.5t-65 60.5t-64.5 51t-66.5 21q-143 0 -143 -195h-154z" />
<glyph unicode="&#xa1;" horiz-adv-x="512" d="M164 840v184h184v-184h-184zM174 205l21 491h122l21 -491v-615h-164v615z" />
<glyph unicode="&#xa2;" d="M82 512q0 211 114 350t296 172v215h153v-215q304 -48 379 -338h-154q-30 99 -108.5 152t-188.5 53q-143 0 -240 -108t-97 -281t97 -281t240 -108q111 0 189 54.5t108 160.5h154q-75 -300 -379 -348v-215h-153v215q-181 30 -295.5 172t-114.5 350z" />
<glyph unicode="&#xa3;" horiz-adv-x="1208" d="M72 0v154h51q123 0 123 122v338h-174v144h174v276q0 180 122 300t318 120t318 -114t122 -285h-163q0 104 -75.5 174.5t-201.5 70.5q-122 0 -199 -75t-77 -191v-276h399v-144h-399v-338q0 -60 -31 -100q-16 -16 -31 -22h809v-154h-1085z" />
<glyph unicode="&#xa4;" horiz-adv-x="1187" d="M164 389l112 133q-17 24 -26 51q-25 59 -25 144q0 84 25 143q9 27 26 51l-112 133l112 103l113 -123q25 18 55 31q75 30 150 30q63 0 147 -30l58 -31l112 123l113 -103l-113 -133q15 -21 25 -51q27 -64 27 -143q0 -80 -27 -144q-10 -30 -25 -51l113 -133l-113 -102 l-112 123q-29 -20 -58 -31q-76 -31 -147 -31q-82 0 -150 31q-32 11 -55 31l-113 -123zM369 717q0 -94 65.5 -159.5t159.5 -65.5q91 0 158 66t67 159q0 91 -67 158t-158 67q-93 0 -159 -67t-66 -158z" />
<glyph unicode="&#xa5;" horiz-adv-x="1187" d="M20 1434h175l378 -697h41l379 697h174l-389 -697h246v-143h-348v-164h348v-143h-348v-287h-164v287h-348v143h348v164h-348v143h246z" />
<glyph unicode="&#xa6;" horiz-adv-x="645" d="M246 348h153v-758h-153v758zM246 737v758h153v-758h-153z" />
<glyph unicode="&#xa7;" horiz-adv-x="1269" d="M133 625q0 102 62 188q29 40 61 68q-28 28 -41 53q-41 62 -41 162q0 159 117.5 258.5t333.5 99.5q217 0 349 -119.5t132 -300.5h-164q0 120 -83.5 193t-233.5 73q-140 0 -213.5 -57t-73.5 -147q0 -79 45 -120.5t160 -64.5l205 -41q201 -38 295 -124.5t94 -233.5 q0 -105 -62 -199q-27 -40 -61 -67q21 -18 45 -58q47 -80 47 -178q0 -153 -123.5 -255.5t-337.5 -102.5q-224 0 -357.5 119t-133.5 301h163q0 -121 85.5 -194t242.5 -73q147 0 222 57t75 148q0 171 -215 215l-205 41q-199 41 -294 129.5t-95 229.5zM297 625q0 -160 225 -205 l205 -41q60 -8 113 -29q21 -7 51 -22q24 21 41 43q41 55 41 141q0 160 -225 205l-205 41q-123 27 -125 28q-17 5 -29 13q-22 -12 -47 -41q-45 -61 -45 -133z" />
<glyph unicode="&#xa8;" horiz-adv-x="655" d="M61 1239v174h175v-174h-175zM420 1239v174h174v-174h-174z" />
<glyph unicode="&#xa9;" horiz-adv-x="1720" d="M123 717q0 155 56.5 292t154 234.5t234.5 154t292 56.5t292 -56.5t234.5 -154t154 -234.5t56.5 -292t-56.5 -292t-154 -234.5t-234.5 -154t-292 -56.5t-292 56.5t-234.5 154t-154 234.5t-56.5 292zM266 717q0 -171 80 -310.5t215.5 -216.5t298.5 -77t298.5 77 t215.5 216.5t80 310.5t-80 310.5t-215.5 216.5t-298.5 77t-298.5 -77t-215.5 -216.5t-80 -310.5zM502 717q0 167 106.5 278t261.5 111q123 0 215 -69.5t123 -186.5h-133q-45 133 -205 133q-102 0 -168.5 -72.5t-66.5 -193.5t66.5 -193.5t168.5 -72.5q81 0 131.5 33.5 t73.5 109.5h133q-31 -122 -122.5 -194t-215.5 -72q-160 0 -264 110t-104 279z" />
<glyph unicode="&#xaa;" horiz-adv-x="686" d="M72 1004q0 89 62.5 141.5t182.5 52.5h164v21q0 59 -38 90.5t-95 31.5q-96 0 -133 -81h-123q18 89 84 141.5t172 52.5q110 0 178 -63.5t68 -171.5v-410h-82l-20 82h-11q-56 -92 -184 -92q-100 0 -162.5 56.5t-62.5 148.5zM195 1004q0 -45 31 -69t81 -24q174 0 174 174v11 h-164q-56 0 -89 -23t-33 -69z" />
<glyph unicode="&#xab;" horiz-adv-x="1013" d="M92 512l287 399h164l-287 -399l287 -399h-164zM471 512l287 399h164l-287 -399l287 -399h-164z" />
<glyph unicode="&#xac;" horiz-adv-x="1075" d="M143 604v144h779v-410h-154v266h-625z" />
<glyph unicode="&#xad;" horiz-adv-x="839" d="M92 512v143h656v-143h-656z" />
<glyph unicode="&#xae;" horiz-adv-x="1720" d="M123 717q0 155 56.5 292t154 234.5t234.5 154t292 56.5t292 -56.5t234.5 -154t154 -234.5t56.5 -292t-56.5 -292t-154 -234.5t-234.5 -154t-292 -56.5t-292 56.5t-234.5 154t-154 234.5t-56.5 292zM266 717q0 -171 80 -310.5t215.5 -216.5t298.5 -77t298.5 77 t215.5 216.5t80 310.5t-80 310.5t-215.5 216.5t-298.5 77t-298.5 -77t-215.5 -216.5t-80 -310.5zM584 338v768h338q107 0 181.5 -74.5t74.5 -181.5t-67 -177.5t-169 -78.5l256 -256h-164l-256 256h-61v-256h-133zM717 717h205q55 0 88.5 36t33.5 97t-33.5 97t-88.5 36h-205 v-266z" />
<glyph unicode="&#xaf;" horiz-adv-x="696" d="M61 1270v123h574v-123h-574z" />
<glyph unicode="&#xb0;" horiz-adv-x="757" d="M113 1188q0 117 74.5 191.5t191.5 74.5t191.5 -74.5t74.5 -191.5t-74.5 -191.5t-191.5 -74.5t-191.5 74.5t-74.5 191.5zM236 1188q0 -62 41 -103t102 -41t102 41t41 103t-41 102.5t-102 40.5t-102 -40.5t-41 -102.5z" />
<glyph unicode="&#xb1;" horiz-adv-x="1095" d="M102 666v143h369v379h154v-379h368v-143h-368v-379h-154v379h-369zM113 0v143h870v-143h-870z" />
<glyph unicode="&#xb2;" horiz-adv-x="686" d="M102 1413q0 101 69 168.5t177 67.5t172 -62.5t64 -163.5q0 -64 -23 -105t-80 -99l-184 -195v-10h297v-113h-481v103l286 296q33 33 47.5 60t14.5 63q0 49 -30.5 81t-82.5 32q-56 0 -89.5 -31.5t-33.5 -91.5h-123z" />
<glyph unicode="&#xb3;" horiz-adv-x="686" d="M92 1106h123q0 -40 35.5 -71t87.5 -31q55 0 89 29.5t34 82.5q0 54 -35.5 83.5t-97.5 29.5h-52v112h52q60 0 91.5 27.5t31.5 75.5q0 40 -30.5 66t-82.5 26t-82.5 -26t-30.5 -66h-123q0 88 64.5 146.5t171.5 58.5q106 0 170.5 -58.5t64.5 -146.5q0 -47 -27.5 -89t-74.5 -65 v-10q50 -18 81.5 -61.5t31.5 -102.5q0 -96 -66.5 -160.5t-179.5 -64.5q-106 0 -176 61.5t-70 153.5z" />
<glyph unicode="&#xb4;" horiz-adv-x="501" d="M61 1219l195 286h184l-235 -286h-144z" />
<glyph unicode="&#xb5;" horiz-adv-x="1167" d="M143 -410v1434h154v-614q0 -122 80 -204.5t196 -82.5q122 0 209.5 85.5t87.5 201.5v614h154v-1024h-133l-21 113h-10q-38 -44 -76 -68q-97 -65 -221 -65q-127 0 -203 55q-37 24 -63 57v-502h-154z" />
<glyph unicode="&#xb6;" horiz-adv-x="1075" d="M92 1085q0 152 94 250.5t234 98.5h491v-1639h-153v1495h-185v-1495h-153v942q-140 0 -234 98t-94 250z" />
<glyph unicode="&#xb7;" horiz-adv-x="471" d="M143 451v184h185v-184h-185z" />
<glyph unicode="&#xb8;" horiz-adv-x="419" d="M61 -317h82q46 0 69.5 19.5t23.5 51.5t-24 52t-69 20h-51v72l41 92h123l-41 -92q60 -7 101.5 -53t41.5 -101q0 -71 -52 -117.5t-142 -46.5h-103v103z" />
<glyph unicode="&#xb9;" horiz-adv-x="522" d="M72 1434v112h112q62 0 62 62v30h123v-737h-123v533h-174z" />
<glyph unicode="&#xba;" horiz-adv-x="757" d="M82 1126q0 147 83 237.5t214 90.5t214 -90.5t83 -237.5t-83 -237t-214 -90t-214 90t-83 237zM205 1126q0 -96 51 -155.5t123 -59.5t123 59.5t51 155.5t-51 155.5t-123 59.5t-123 -59.5t-51 -155.5z" />
<glyph unicode="&#xbb;" horiz-adv-x="1013" d="M92 113l287 399l-287 399h164l287 -399l-287 -399h-164zM471 113l287 399l-287 399h164l287 -399l-287 -399h-164z" />
<glyph unicode="&#xbc;" horiz-adv-x="1351" d="M82 1229v112h113q61 0 61 62v31h123v-738h-123v533h-174zM113 0l891 1434h143l-891 -1434h-143zM707 154v102l276 481h184v-471h103v-112h-103v-154h-123v154h-337zM860 266h184v307h-20l-164 -297v-10z" />
<glyph unicode="&#xbd;" horiz-adv-x="1413" d="M82 1229v112h113q61 0 61 62v31h123v-738h-123v533h-174zM113 0l891 1434h143l-891 -1434h-143zM799 512q0 101 68.5 168.5t176.5 67.5t172 -62.5t64 -163.5q0 -64 -23 -105.5t-79 -99.5l-185 -194v-10h297v-113h-481v102l287 297q33 33 47 60t14 63q0 49 -30.5 81 t-82.5 32q-56 0 -89 -31.5t-33 -91.5h-123z" />
<glyph unicode="&#xbe;" horiz-adv-x="1484" d="M82 901h123q0 -40 35.5 -71t87.5 -31q55 0 89 29.5t34 82.5t-36 83t-98 30h-51v113h51q60 0 91.5 27t31.5 75q0 40 -30 66t-82 26t-82.5 -26t-30.5 -66h-123q0 88 64.5 146.5t171.5 58.5q106 0 170.5 -58.5t64.5 -146.5q0 -47 -27.5 -89t-74.5 -65v-10q49 -18 80.5 -61.5 t31.5 -102.5q0 -96 -66 -160.5t-179 -64.5q-106 0 -176 61.5t-70 153.5zM246 0l891 1434h143l-891 -1434h-143zM840 154v102l276 481h184v-471h103v-112h-103v-154h-122v154h-338zM993 266h185v307h-21l-164 -297v-10z" />
<glyph unicode="&#xbf;" horiz-adv-x="1034" d="M82 -10q0 262 235 379q86 41 115 88t29 116v123h164v-123q0 -121 -50.5 -193t-175.5 -134q-153 -75 -153 -256q0 -115 81.5 -190.5t204.5 -75.5q127 0 207 71t80 174h164q0 -171 -126 -285t-325 -114q-198 0 -324 120t-126 300zM451 840v184h184v-184h-184z" />
<glyph unicode="&#xc0;" horiz-adv-x="1331" d="M0 0l543 1434h245l543 -1434h-174l-133 369h-717l-133 -369h-174zM358 1864h185l194 -287h-143zM369 522h594l-277 738h-41z" />
<glyph unicode="&#xc1;" horiz-adv-x="1331" d="M0 0l543 1434h245l543 -1434h-174l-133 369h-717l-133 -369h-174zM369 522h594l-277 738h-41zM594 1577l194 287h185l-236 -287h-143z" />
<glyph unicode="&#xc2;" horiz-adv-x="1331" d="M0 0l543 1434h245l543 -1434h-174l-133 369h-717l-133 -369h-174zM348 1577l236 276h164l235 -276h-164l-153 184l-154 -184h-164zM369 522h594l-277 738h-41z" />
<glyph unicode="&#xc3;" horiz-adv-x="1331" d="M0 0l543 1434h245l543 -1434h-174l-133 369h-717l-133 -369h-174zM348 1618q0 91 59 148t146 57q44 0 87.5 -23t81 -46t66.5 -23q34 0 58 24t24 68h123q0 -91 -59 -148t-146 -57q-44 0 -87.5 23t-81 46t-66.5 23q-34 0 -58 -24t-24 -68h-123zM369 522h594l-277 738h-41z " />
<glyph unicode="&#xc4;" horiz-adv-x="1331" d="M0 0l543 1434h245l543 -1434h-174l-133 369h-717l-133 -369h-174zM369 522h594l-277 738h-41zM399 1638v174h174v-174h-174zM758 1638v174h174v-174h-174z" />
<glyph unicode="&#xc5;" horiz-adv-x="1331" d="M0 0l543 1434h245l543 -1434h-174l-133 369h-717l-133 -369h-174zM369 522h594l-277 738h-41zM481 1741q0 78 53.5 131t131.5 53t131 -53t53 -131t-53 -131.5t-131 -53.5t-131.5 53.5t-53.5 131.5zM584 1741q0 -37 24.5 -59.5t57.5 -22.5t57.5 22.5t24.5 59.5t-24.5 59.5 t-57.5 22.5t-57.5 -22.5t-24.5 -59.5z" />
<glyph unicode="&#xc6;" horiz-adv-x="1894" d="M-20 0l624 1434h1178v-154h-758v-481h717v-154h-717v-491h758v-154h-922v358h-553l-153 -358h-174zM379 512h481v768h-153z" />
<glyph unicode="&#xc7;" horiz-adv-x="1495" d="M102 717q0 161 54.5 300t147 234t218.5 149t266 54q230 0 402 -130t233 -351h-174q-54 153 -176.5 240t-284.5 87q-143 0 -262 -72t-189.5 -206t-70.5 -305q0 -128 41.5 -238.5t112 -185.5t166 -117.5t202.5 -42.5q162 0 284.5 89t176.5 249h174q-60 -227 -216.5 -352 t-377.5 -139l-30 -72q60 -7 101.5 -53t41.5 -101q0 -71 -52 -117.5t-142 -46.5h-103v103h82q46 0 69 19.5t23 51.5t-23.5 52t-68.5 20h-51v72l31 72q-124 15 -233 72.5t-192 149.5t-131.5 225.5t-48.5 289.5z" />
<glyph unicode="&#xc8;" horiz-adv-x="1198" d="M164 0v1434h921v-154h-757v-481h716v-154h-716v-491h757v-154h-921zM317 1864h185l194 -287h-143z" />
<glyph unicode="&#xc9;" horiz-adv-x="1198" d="M164 0v1434h921v-154h-757v-481h716v-154h-716v-491h757v-154h-921zM553 1577l195 287h184l-236 -287h-143z" />
<glyph unicode="&#xca;" horiz-adv-x="1198" d="M164 0v1434h921v-154h-757v-481h716v-154h-716v-491h757v-154h-921zM307 1577l236 276h164l235 -276h-164l-153 184l-154 -184h-164z" />
<glyph unicode="&#xcb;" horiz-adv-x="1198" d="M164 0v1434h921v-154h-757v-481h716v-154h-716v-491h757v-154h-921zM358 1638v174h174v-174h-174zM717 1638v174h174v-174h-174z" />
<glyph unicode="&#xcc;" horiz-adv-x="491" d="M-61 1864h184l194 -287h-143zM164 0v1434h164v-1434h-164z" />
<glyph unicode="&#xcd;" horiz-adv-x="491" d="M164 0v1434h164v-1434h-164zM174 1577l195 287h184l-236 -287h-143z" />
<glyph unicode="&#xce;" horiz-adv-x="491" d="M-72 1577l236 276h164l235 -276h-164l-153 184l-154 -184h-164zM164 0v1434h164v-1434h-164z" />
<glyph unicode="&#xcf;" horiz-adv-x="491" d="M-20 1638v174h174v-174h-174zM164 0v1434h164v-1434h-164zM338 1638v174h174v-174h-174z" />
<glyph unicode="&#xd0;" horiz-adv-x="1505" d="M41 645v154h195v635h481q197 0 353.5 -91.5t244.5 -255.5t88 -370t-88 -370t-244.5 -255.5t-353.5 -91.5h-481v645h-195zM399 154h318q225 0 373.5 157t148.5 406t-148.5 406t-373.5 157h-318v-481h379v-154h-379v-491z" />
<glyph unicode="&#xd1;" horiz-adv-x="1454" d="M164 0v1434h276l645 -1239h41v1239h164v-1434h-276l-645 1239h-41v-1239h-164zM410 1618q0 91 59 148t145 57q44 0 88 -23t81.5 -46t66.5 -23q34 0 58 24t24 68h123q0 -91 -59 -148t-146 -57q-44 0 -88 23t-81.5 46t-66.5 23q-34 0 -58 -24t-24 -68h-122z" />
<glyph unicode="&#xd2;" horiz-adv-x="1576" d="M102 717q0 161 54.5 300t147 234t218.5 149t266 54t266 -54t219 -149t147.5 -234t54.5 -300t-54.5 -300t-147.5 -234t-219 -149t-266 -54t-266 54t-218.5 149t-147 234t-54.5 300zM266 717q0 -128 41.5 -238.5t112 -185.5t166 -117.5t202.5 -42.5t202.5 42.5t166.5 117.5 t112.5 185.5t41.5 238.5t-41.5 238t-112.5 185t-166.5 117.5t-202.5 42.5q-143 0 -262 -72t-189.5 -206t-70.5 -305zM481 1864h185l194 -287h-143z" />
<glyph unicode="&#xd3;" horiz-adv-x="1576" d="M102 717q0 161 54.5 300t147 234t218.5 149t266 54t266 -54t219 -149t147.5 -234t54.5 -300t-54.5 -300t-147.5 -234t-219 -149t-266 -54t-266 54t-218.5 149t-147 234t-54.5 300zM266 717q0 -128 41.5 -238.5t112 -185.5t166 -117.5t202.5 -42.5t202.5 42.5t166.5 117.5 t112.5 185.5t41.5 238.5t-41.5 238t-112.5 185t-166.5 117.5t-202.5 42.5q-143 0 -262 -72t-189.5 -206t-70.5 -305zM717 1577l194 287h185l-236 -287h-143z" />
<glyph unicode="&#xd4;" horiz-adv-x="1576" d="M102 717q0 161 54.5 300t147 234t218.5 149t266 54t266 -54t219 -149t147.5 -234t54.5 -300t-54.5 -300t-147.5 -234t-219 -149t-266 -54t-266 54t-218.5 149t-147 234t-54.5 300zM266 717q0 -128 41.5 -238.5t112 -185.5t166 -117.5t202.5 -42.5t202.5 42.5t166.5 117.5 t112.5 185.5t41.5 238.5t-41.5 238t-112.5 185t-166.5 117.5t-202.5 42.5q-143 0 -262 -72t-189.5 -206t-70.5 -305zM471 1577l236 276h163l236 -276h-164l-154 184l-153 -184h-164z" />
<glyph unicode="&#xd5;" horiz-adv-x="1576" d="M102 717q0 161 54.5 300t147 234t218.5 149t266 54t266 -54t219 -149t147.5 -234t54.5 -300t-54.5 -300t-147.5 -234t-219 -149t-266 -54t-266 54t-218.5 149t-147 234t-54.5 300zM266 717q0 -128 41.5 -238.5t112 -185.5t166 -117.5t202.5 -42.5t202.5 42.5t166.5 117.5 t112.5 185.5t41.5 238.5t-41.5 238t-112.5 185t-166.5 117.5t-202.5 42.5q-143 0 -262 -72t-189.5 -206t-70.5 -305zM471 1618q0 91 59 148t146 57q44 0 87.5 -23t81 -46t66.5 -23q34 0 58 24t24 68h123q0 -91 -59 -148t-146 -57q-44 0 -87.5 23t-81 46t-66.5 23 q-34 0 -58 -24t-24 -68h-123z" />
<glyph unicode="&#xd6;" horiz-adv-x="1576" d="M102 717q0 161 54.5 300t147 234t218.5 149t266 54t266 -54t219 -149t147.5 -234t54.5 -300t-54.5 -300t-147.5 -234t-219 -149t-266 -54t-266 54t-218.5 149t-147 234t-54.5 300zM266 717q0 -128 41.5 -238.5t112 -185.5t166 -117.5t202.5 -42.5t202.5 42.5t166.5 117.5 t112.5 185.5t41.5 238.5t-41.5 238t-112.5 185t-166.5 117.5t-202.5 42.5q-143 0 -262 -72t-189.5 -206t-70.5 -305zM522 1638v174h174v-174h-174zM881 1638v174h174v-174h-174z" />
<glyph unicode="&#xd7;" d="M154 317l286 287l-286 287l102 102l287 -286l286 286l103 -102l-287 -287l287 -287l-103 -102l-286 287l-287 -287z" />
<glyph unicode="&#xd8;" horiz-adv-x="1576" d="M102 717q0 161 54.5 300t147 234t218.5 149t266 54q100 0 197 -29q45 -13 74 -26l57 106h174l-92 -184q129 -105 203 -258t74 -346q0 -161 -54.5 -300t-147.5 -234t-219 -149t-266 -54q-109 0 -196 26q-23 7 -74 29l-57 -107h-174l92 185q-129 105 -203 258t-74 346z M266 717q0 -149 53 -269.5t142 -191.5l522 1004q-13 7 -51 20q-66 20 -144 20q-143 0 -262 -72t-189.5 -206t-70.5 -305zM594 174q13 -7 51 -20q69 -21 143 -21q107 0 202.5 42.5t166.5 117.5t112.5 185.5t41.5 238.5q0 149 -53 269.5t-142 191.5z" />
<glyph unicode="&#xd9;" horiz-adv-x="1413" d="M143 563v871h164v-871q0 -190 114.5 -310t285.5 -120q170 0 284.5 120.5t114.5 309.5v871h164v-871q0 -129 -43.5 -238.5t-118.5 -184.5t-178.5 -117.5t-222.5 -42.5q-159 0 -287 72t-202.5 206t-74.5 305zM399 1864h185l194 -287h-143z" />
<glyph unicode="&#xda;" horiz-adv-x="1413" d="M143 563v871h164v-871q0 -190 114.5 -310t285.5 -120q170 0 284.5 120.5t114.5 309.5v871h164v-871q0 -129 -43.5 -238.5t-118.5 -184.5t-178.5 -117.5t-222.5 -42.5q-159 0 -287 72t-202.5 206t-74.5 305zM635 1577l194 287h185l-236 -287h-143z" />
<glyph unicode="&#xdb;" horiz-adv-x="1413" d="M143 563v871h164v-871q0 -190 114.5 -310t285.5 -120q170 0 284.5 120.5t114.5 309.5v871h164v-871q0 -129 -43.5 -238.5t-118.5 -184.5t-178.5 -117.5t-222.5 -42.5q-159 0 -287 72t-202.5 206t-74.5 305zM389 1577l236 276h163l236 -276h-164l-153 184l-154 -184h-164z " />
<glyph unicode="&#xdc;" horiz-adv-x="1413" d="M143 563v871h164v-871q0 -190 114.5 -310t285.5 -120q170 0 284.5 120.5t114.5 309.5v871h164v-871q0 -129 -43.5 -238.5t-118.5 -184.5t-178.5 -117.5t-222.5 -42.5q-159 0 -287 72t-202.5 206t-74.5 305zM440 1638v174h174v-174h-174zM799 1638v174h174v-174h-174z" />
<glyph unicode="&#xdd;" horiz-adv-x="1208" d="M0 1434h174l410 -707h41l409 707h174l-522 -891v-543h-164v543zM532 1577l195 287h184l-235 -287h-144z" />
<glyph unicode="&#xde;" horiz-adv-x="1423" d="M164 0v1434h164v-308h594q177 0 293 -116t116 -293t-116 -293.5t-293 -116.5h-594v-307h-164zM328 461h594q110 0 177.5 70t67.5 186t-67.5 186t-177.5 70h-594v-512z" />
<glyph unicode="&#xdf;" horiz-adv-x="1126" d="M143 0v1055q0 178 114.5 288.5t305.5 110.5q196 0 313 -113.5t117 -285.5q0 -154 -98 -252q-46 -46 -96 -66v-10q69 -24 123 -68q122 -95 122 -260q0 -174 -127 -286.5t-344 -112.5h-71v143h71q149 0 233.5 72t84.5 184t-84.5 184t-233.5 72h-71v144h71q120 0 193.5 73 t73.5 183q0 109 -78 182.5t-199 73.5q-115 0 -190.5 -74t-75.5 -182v-1055h-154z" />
<glyph unicode="&#xe0;" d="M102 297q0 154 101 241t309 87h276v30q0 117 -64 181.5t-181 64.5q-112 0 -180 -50.5t-76 -123.5h-154q8 131 117.5 224t292.5 93q187 0 293 -102t106 -287v-655h-133l-21 123h-10q-29 -44 -73 -72q-93 -71 -244 -71q-160 0 -259.5 88.5t-99.5 228.5zM236 1475h184 l194 -287h-143zM256 297q0 -80 53.5 -127t151.5 -47q153 0 240 84.5t87 232.5v41h-276q-131 0 -193.5 -51t-62.5 -133z" />
<glyph unicode="&#xe1;" d="M102 297q0 154 101 241t309 87h276v30q0 117 -64 181.5t-181 64.5q-112 0 -180 -50.5t-76 -123.5h-154q8 131 117.5 224t292.5 93q187 0 293 -102t106 -287v-655h-133l-21 123h-10q-29 -44 -73 -72q-93 -71 -244 -71q-160 0 -259.5 88.5t-99.5 228.5zM256 297 q0 -80 53.5 -127t151.5 -47q153 0 240 84.5t87 232.5v41h-276q-131 0 -193.5 -51t-62.5 -133zM471 1188l195 287h184l-236 -287h-143z" />
<glyph unicode="&#xe2;" d="M102 297q0 154 101 241t309 87h276v30q0 117 -64 181.5t-181 64.5q-112 0 -180 -50.5t-76 -123.5h-154q8 131 117.5 224t292.5 93q187 0 293 -102t106 -287v-655h-133l-21 123h-10q-29 -44 -73 -72q-93 -71 -244 -71q-160 0 -259.5 88.5t-99.5 228.5zM225 1188l236 276 h164l235 -276h-164l-153 184l-154 -184h-164zM256 297q0 -80 53.5 -127t151.5 -47q153 0 240 84.5t87 232.5v41h-276q-131 0 -193.5 -51t-62.5 -133z" />
<glyph unicode="&#xe3;" d="M102 297q0 154 101 241t309 87h276v30q0 117 -64 181.5t-181 64.5q-112 0 -180 -50.5t-76 -123.5h-154q8 131 117.5 224t292.5 93q187 0 293 -102t106 -287v-655h-133l-21 123h-10q-29 -44 -73 -72q-93 -71 -244 -71q-160 0 -259.5 88.5t-99.5 228.5zM225 1229 q0 91 59 148t146 57q35 0 70.5 -14.5t59.5 -32t53 -32t53 -14.5q34 0 58 24.5t24 68.5h122q0 -91 -59 -148t-145 -57q-44 0 -88 23t-81.5 46t-66.5 23q-34 0 -58 -24t-24 -68h-123zM256 297q0 -80 53.5 -127t151.5 -47q153 0 240 84.5t87 232.5v41h-276q-131 0 -193.5 -51 t-62.5 -133z" />
<glyph unicode="&#xe4;" d="M102 297q0 154 101 241t309 87h276v30q0 117 -64 181.5t-181 64.5q-112 0 -180 -50.5t-76 -123.5h-154q8 131 117.5 224t292.5 93q187 0 293 -102t106 -287v-655h-133l-21 123h-10q-29 -44 -73 -72q-93 -71 -244 -71q-160 0 -259.5 88.5t-99.5 228.5zM256 297 q0 -80 53.5 -127t151.5 -47q153 0 240 84.5t87 232.5v41h-276q-131 0 -193.5 -51t-62.5 -133zM276 1239v174h175v-174h-175zM635 1239v174h174v-174h-174z" />
<glyph unicode="&#xe5;" d="M102 297q0 154 101 241t309 87h276v30q0 117 -64 181.5t-181 64.5q-112 0 -180 -50.5t-76 -123.5h-154q8 131 117.5 224t292.5 93q187 0 293 -102t106 -287v-655h-133l-21 123h-10q-29 -44 -73 -72q-93 -71 -244 -71q-160 0 -259.5 88.5t-99.5 228.5zM256 297 q0 -80 53.5 -127t151.5 -47q153 0 240 84.5t87 232.5v41h-276q-131 0 -193.5 -51t-62.5 -133zM358 1352q0 78 53.5 131t131.5 53t131 -53t53 -131t-53 -131.5t-131 -53.5t-131.5 53.5t-53.5 131.5zM461 1352q0 -37 24.5 -59.5t57.5 -22.5t57.5 22.5t24.5 59.5t-24.5 59.5 t-57.5 22.5t-57.5 -22.5t-24.5 -59.5z" />
<glyph unicode="&#xe6;" horiz-adv-x="1812" d="M102 287q0 146 101.5 231.5t308.5 85.5h276v51q0 117 -64 181.5t-181 64.5q-112 0 -180 -50.5t-76 -123.5h-154q8 131 117.5 224t292.5 93q126 0 217 -59.5t131 -155.5q126 215 379 215q202 0 331.5 -135.5t129.5 -355.5q0 -22 -7 -78l-4 -24h-778q17 -148 107.5 -238 t220.5 -90q91 0 159 42.5t107 121.5h164q-112 -307 -430 -307q-173 0 -303 112q-56 47 -97 113q-38 -66 -94 -113q-130 -112 -315 -112q-159 0 -259 87.5t-100 219.5zM256 287q0 -72 54 -118t151 -46q153 0 240 84.5t87 232.5v21h-276q-127 0 -191.5 -46.5t-64.5 -127.5z M942 594h635q-7 142 -93.5 224.5t-213.5 82.5q-133 0 -222 -81t-106 -226z" />
<glyph unicode="&#xe7;" d="M82 512q0 117 38 216.5t104 168.5t156 108t193 39q170 0 291.5 -93.5t159.5 -254.5h-154q-30 99 -108.5 152t-188.5 53q-143 0 -240 -108t-97 -281t97 -281t240 -108q111 0 189 54.5t108 160.5h154q-37 -164 -140.5 -252t-258.5 -106l-31 -72q60 -7 101.5 -53t41.5 -101 q0 -71 -52 -117.5t-142 -46.5h-103v103h82q46 0 69 19.5t23 51.5t-23.5 52t-68.5 20h-51v72l31 72q-185 31 -302.5 171t-117.5 361z" />
<glyph unicode="&#xe8;" horiz-adv-x="1126" d="M82 512q0 117 38 216.5t104 168.5t156 108t193 39q202 0 336.5 -138.5t134.5 -352.5q0 -34 -6 -88l-4 -25h-798q17 -144 111.5 -230.5t225.5 -86.5q93 0 166 43t111 121h164q-54 -148 -167 -227.5t-274 -79.5q-103 0 -193 39t-156 108t-104 168.5t-38 216.5zM236 584h655 q-7 139 -97 228t-221 89q-138 0 -228.5 -87.5t-108.5 -229.5zM256 1475h184l195 -287h-143z" />
<glyph unicode="&#xe9;" horiz-adv-x="1126" d="M82 512q0 117 38 216.5t104 168.5t156 108t193 39q202 0 336.5 -138.5t134.5 -352.5q0 -34 -6 -88l-4 -25h-798q17 -144 111.5 -230.5t225.5 -86.5q93 0 166 43t111 121h164q-54 -148 -167 -227.5t-274 -79.5q-103 0 -193 39t-156 108t-104 168.5t-38 216.5zM236 584h655 q-7 139 -97 228t-221 89q-138 0 -228.5 -87.5t-108.5 -229.5zM492 1188l194 287h184l-235 -287h-143z" />
<glyph unicode="&#xea;" horiz-adv-x="1126" d="M82 512q0 117 38 216.5t104 168.5t156 108t193 39q202 0 336.5 -138.5t134.5 -352.5q0 -34 -6 -88l-4 -25h-798q17 -144 111.5 -230.5t225.5 -86.5q93 0 166 43t111 121h164q-54 -148 -167 -227.5t-274 -79.5q-103 0 -193 39t-156 108t-104 168.5t-38 216.5zM236 584h655 q-7 139 -97 228t-221 89q-138 0 -228.5 -87.5t-108.5 -229.5zM246 1188l235 276h164l236 -276h-164l-154 184l-153 -184h-164z" />
<glyph unicode="&#xeb;" horiz-adv-x="1126" d="M82 512q0 117 38 216.5t104 168.5t156 108t193 39q202 0 336.5 -138.5t134.5 -352.5q0 -34 -6 -88l-4 -25h-798q17 -144 111.5 -230.5t225.5 -86.5q93 0 166 43t111 121h164q-54 -148 -167 -227.5t-274 -79.5q-103 0 -193 39t-156 108t-104 168.5t-38 216.5zM236 584h655 q-7 139 -97 228t-221 89q-138 0 -228.5 -87.5t-108.5 -229.5zM297 1239v174h174v-174h-174zM655 1239v174h174v-174h-174z" />
<glyph unicode="&#xec;" horiz-adv-x="440" d="M-92 1475h184l195 -287h-144zM143 0v1024h154v-1024h-154z" />
<glyph unicode="&#xed;" horiz-adv-x="440" d="M143 0v1024h154v-1024h-154zM154 1188l194 287h184l-235 -287h-143z" />
<glyph unicode="&#xee;" horiz-adv-x="440" d="M-92 1188l235 276h164l236 -276h-164l-154 184l-153 -184h-164zM143 0v1024h154v-1024h-154z" />
<glyph unicode="&#xef;" horiz-adv-x="440" d="M-51 1239v174h174v-174h-174zM143 0v1024h154v-1024h-154zM307 1239v174h174v-174h-174z" />
<glyph unicode="&#xf0;" horiz-adv-x="1116" d="M82 461q0 213 134 347t337 134q151 0 256 -92h10q-59 151 -215 307l-256 -133l-61 113l215 112q-30 24 -86.5 62.5t-65.5 44.5q-69 44 -74 47l123 72l78 -52q80 -53 148 -112l235 123l62 -113l-205 -102q307 -328 307 -717q0 -241 -132.5 -381.5t-338.5 -140.5 q-203 0 -337 134t-134 347zM236 461q0 -153 88 -245.5t229 -92.5t229 92.5t88 245.5t-88 245.5t-229 92.5t-229 -92.5t-88 -245.5z" />
<glyph unicode="&#xf1;" horiz-adv-x="1167" d="M143 0v1024h133l21 -113h10q33 41 76 66q104 67 231 67q178 0 294 -119.5t116 -310.5v-614h-154v614q0 122 -80 204.5t-196 82.5q-122 0 -209.5 -85.5t-87.5 -201.5v-614h-154zM287 1229q0 91 59 148t146 57q35 0 70.5 -14.5t59.5 -32t52.5 -32t52.5 -14.5 q33 0 57.5 24.5t24.5 68.5h123q0 -91 -59 -148t-146 -57q-44 0 -87.5 23t-81 46t-66.5 23q-34 0 -58 -24t-24 -68h-123z" />
<glyph unicode="&#xf2;" horiz-adv-x="1146" d="M82 512q0 117 38 216.5t104 168.5t156 108t193 39q137 0 249 -66t177.5 -188.5t65.5 -277.5t-65.5 -277.5t-177.5 -188.5t-249 -66q-103 0 -193 39t-156 108t-104 168.5t-38 216.5zM236 512q0 -173 97 -281t240 -108t240.5 108t97.5 281t-97.5 281t-240.5 108t-240 -108 t-97 -281zM266 1475h185l194 -287h-143z" />
<glyph unicode="&#xf3;" horiz-adv-x="1146" d="M82 512q0 117 38 216.5t104 168.5t156 108t193 39q137 0 249 -66t177.5 -188.5t65.5 -277.5t-65.5 -277.5t-177.5 -188.5t-249 -66q-103 0 -193 39t-156 108t-104 168.5t-38 216.5zM236 512q0 -173 97 -281t240 -108t240.5 108t97.5 281t-97.5 281t-240.5 108t-240 -108 t-97 -281zM502 1188l194 287h185l-236 -287h-143z" />
<glyph unicode="&#xf4;" horiz-adv-x="1146" d="M82 512q0 117 38 216.5t104 168.5t156 108t193 39q137 0 249 -66t177.5 -188.5t65.5 -277.5t-65.5 -277.5t-177.5 -188.5t-249 -66q-103 0 -193 39t-156 108t-104 168.5t-38 216.5zM236 512q0 -173 97 -281t240 -108t240.5 108t97.5 281t-97.5 281t-240.5 108t-240 -108 t-97 -281zM256 1188l236 276h163l236 -276h-164l-154 184l-153 -184h-164z" />
<glyph unicode="&#xf5;" horiz-adv-x="1146" d="M82 512q0 117 38 216.5t104 168.5t156 108t193 39q137 0 249 -66t177.5 -188.5t65.5 -277.5t-65.5 -277.5t-177.5 -188.5t-249 -66q-103 0 -193 39t-156 108t-104 168.5t-38 216.5zM236 512q0 -173 97 -281t240 -108t240.5 108t97.5 281t-97.5 281t-240.5 108t-240 -108 t-97 -281zM256 1229q0 91 59 148t146 57q35 0 70.5 -14.5t59.5 -32t52.5 -32t52.5 -14.5q34 0 58 24.5t24 68.5h123q0 -91 -59 -148t-146 -57q-44 0 -87.5 23t-81 46t-66.5 23q-34 0 -58 -24t-24 -68h-123z" />
<glyph unicode="&#xf6;" horiz-adv-x="1146" d="M82 512q0 117 38 216.5t104 168.5t156 108t193 39q137 0 249 -66t177.5 -188.5t65.5 -277.5t-65.5 -277.5t-177.5 -188.5t-249 -66q-103 0 -193 39t-156 108t-104 168.5t-38 216.5zM236 512q0 -173 97 -281t240 -108t240.5 108t97.5 281t-97.5 281t-240.5 108t-240 -108 t-97 -281zM307 1239v174h174v-174h-174zM666 1239v174h174v-174h-174z" />
<glyph unicode="&#xf7;" d="M133 522v144h819v-144h-819zM451 266q0 38 27 65t65 27t65 -27t27 -65t-27 -65t-65 -27t-65 27t-27 65zM451 922q0 38 27 65t65 27t65 -27t27 -65t-27 -65.5t-65 -27.5t-65 27.5t-27 65.5z" />
<glyph unicode="&#xf8;" horiz-adv-x="1146" d="M82 512q0 117 38 216.5t104 168.5t156 108t193 39q64 0 138 -18l51 -18l47 88h154l-82 -154q184 -166 184 -430q0 -155 -65.5 -277.5t-177.5 -188.5t-249 -66q-78 0 -137 18l-51 18l-47 -88h-154l82 154q-184 166 -184 430zM236 512q0 -185 102 -287l358 656l-34 10 q-38 10 -89 10q-143 0 -240 -108t-97 -281zM451 143q20 -8 34 -10q42 -10 88 -10q143 0 240.5 108t97.5 281q0 185 -102 287z" />
<glyph unicode="&#xf9;" horiz-adv-x="1167" d="M143 410v614h154v-614q0 -122 80 -204.5t196 -82.5q122 0 209.5 85.5t87.5 201.5v614h154v-1024h-133l-21 113h-10q-38 -45 -78 -68q-100 -65 -229 -65q-178 0 -294 119.5t-116 310.5zM276 1475h185l194 -287h-143z" />
<glyph unicode="&#xfa;" horiz-adv-x="1167" d="M143 410v614h154v-614q0 -122 80 -204.5t196 -82.5q122 0 209.5 85.5t87.5 201.5v614h154v-1024h-133l-21 113h-10q-38 -45 -78 -68q-100 -65 -229 -65q-178 0 -294 119.5t-116 310.5zM512 1188l195 287h184l-236 -287h-143z" />
<glyph unicode="&#xfb;" horiz-adv-x="1167" d="M143 410v614h154v-614q0 -122 80 -204.5t196 -82.5q122 0 209.5 85.5t87.5 201.5v614h154v-1024h-133l-21 113h-10q-38 -45 -78 -68q-100 -65 -229 -65q-178 0 -294 119.5t-116 310.5zM266 1188l236 276h164l235 -276h-164l-153 184l-154 -184h-164z" />
<glyph unicode="&#xfc;" horiz-adv-x="1167" d="M143 410v614h154v-614q0 -122 80 -204.5t196 -82.5q122 0 209.5 85.5t87.5 201.5v614h154v-1024h-133l-21 113h-10q-38 -45 -78 -68q-100 -65 -229 -65q-178 0 -294 119.5t-116 310.5zM317 1239v174h175v-174h-175zM676 1239v174h174v-174h-174z" />
<glyph unicode="&#xfd;" horiz-adv-x="1013" d="M20 1024h164l318 -850h41l286 850h164l-461 -1290q-26 -76 -68.5 -110t-125.5 -34h-205v144h195q51 0 71 61l41 123zM451 1188l194 287h184l-235 -287h-143z" />
<glyph unicode="&#xfe;" horiz-adv-x="1187" d="M143 -410v1844h154v-553h10q129 163 328 163q203 0 337 -148.5t134 -383.5t-134 -383.5t-337 -148.5q-199 0 -328 163h-10v-553h-154zM297 512q0 -172 96.5 -280.5t231.5 -108.5t231 108.5t96 280.5t-96 280.5t-231 108.5t-231.5 -108.5t-96.5 -280.5z" />
<glyph unicode="&#xff;" horiz-adv-x="1013" d="M20 1024h164l318 -850h41l286 850h164l-461 -1290q-26 -76 -68.5 -110t-125.5 -34h-205v144h195q51 0 71 61l41 123zM256 1239v174h174v-174h-174zM614 1239v174h174v-174h-174z" />
<glyph unicode="&#x152;" horiz-adv-x="2252" d="M102 717q0 162 51 300.5t138 233.5t205.5 149t251.5 54q149 0 268.5 -66.5t191.5 -179.5h11v226h921v-154h-758v-481h717v-154h-717v-491h758v-154h-921v225h-11q-71 -113 -191 -179t-269 -66q-133 0 -251.5 54t-205.5 149t-138 233.5t-51 300.5zM266 717 q0 -262 138.5 -423t343.5 -161t338 160t133 424t-133 423.5t-338 159.5t-343.5 -160.5t-138.5 -422.5z" />
<glyph unicode="&#x153;" horiz-adv-x="1904" d="M82 512q0 235 134 383.5t337 148.5q130 0 233.5 -64t165.5 -181q61 116 170 180.5t240 64.5q136 0 242 -65t162.5 -176.5t56.5 -249.5q0 -30 -6 -84l-5 -29h-778q17 -145 107 -231t221 -86q91 0 159 42.5t107 121.5h164q-112 -307 -430 -307q-130 0 -239 63t-171 172 q-62 -110 -166 -172.5t-233 -62.5q-203 0 -337 148.5t-134 383.5zM236 512q0 -173 92 -281t225 -108t225 108t92 281t-92 281t-225 108t-225 -108t-92 -281zM1034 584h635q-7 143 -94 230t-213 87q-131 0 -221 -86t-107 -231z" />
<glyph unicode="&#x178;" horiz-adv-x="1208" d="M0 1434h174l410 -707h41l409 707h174l-522 -891v-543h-164v543zM338 1638v174h174v-174h-174zM696 1638v174h174v-174h-174z" />
<glyph unicode="&#x2c6;" horiz-adv-x="757" d="M61 1219l236 276h164l235 -276h-164l-153 184l-154 -184h-164z" />
<glyph unicode="&#x2dc;" horiz-adv-x="768" d="M61 1229q0 91 59 148t146 57q35 0 70.5 -14.5t59.5 -32t53 -32t53 -14.5q34 0 58 24.5t24 68.5h123q0 -91 -59 -148t-146 -57q-44 0 -88 23t-81.5 46t-66.5 23q-34 0 -58 -24t-24 -68h-123z" />
<glyph unicode="&#x2000;" horiz-adv-x="962" />
<glyph unicode="&#x2001;" horiz-adv-x="1925" />
<glyph unicode="&#x2002;" horiz-adv-x="962" />
<glyph unicode="&#x2003;" horiz-adv-x="1925" />
<glyph unicode="&#x2004;" horiz-adv-x="641" />
<glyph unicode="&#x2005;" horiz-adv-x="481" />
<glyph unicode="&#x2006;" horiz-adv-x="320" />
<glyph unicode="&#x2007;" horiz-adv-x="320" />
<glyph unicode="&#x2008;" horiz-adv-x="240" />
<glyph unicode="&#x2009;" horiz-adv-x="385" />
<glyph unicode="&#x200a;" horiz-adv-x="106" />
<glyph unicode="&#x2010;" horiz-adv-x="839" d="M92 512v143h656v-143h-656z" />
<glyph unicode="&#x2011;" horiz-adv-x="839" d="M92 512v143h656v-143h-656z" />
<glyph unicode="&#x2012;" horiz-adv-x="839" d="M92 512v143h656v-143h-656z" />
<glyph unicode="&#x2013;" horiz-adv-x="1105" d="M72 512v143h962v-143h-962z" />
<glyph unicode="&#x2014;" horiz-adv-x="1495" d="M72 512v143h1351v-143h-1351z" />
<glyph unicode="&#x2018;" horiz-adv-x="419" d="M102 1085l82 349h133l-41 -349h-174z" />
<glyph unicode="&#x2019;" horiz-adv-x="419" d="M102 1085l41 349h174l-81 -349h-134z" />
<glyph unicode="&#x201a;" horiz-adv-x="419" d="M92 -164l41 348h174l-82 -348h-133z" />
<glyph unicode="&#x201c;" horiz-adv-x="706" d="M102 1085l82 349h133l-41 -349h-174zM389 1085l82 349h133l-41 -349h-174z" />
<glyph unicode="&#x201d;" horiz-adv-x="706" d="M102 1085l41 349h174l-81 -349h-134zM389 1085l41 349h174l-82 -349h-133z" />
<glyph unicode="&#x201e;" horiz-adv-x="706" d="M92 -164l41 348h174l-82 -348h-133zM379 -164l41 348h174l-82 -348h-133z" />
<glyph unicode="&#x2022;" horiz-adv-x="901" d="M246 553q0 86 59.5 145.5t145.5 59.5t145 -59.5t59 -145.5t-59 -145.5t-145 -59.5t-145.5 59.5t-59.5 145.5z" />
<glyph unicode="&#x2026;" horiz-adv-x="1331" d="M123 0v184h184v-184h-184zM573 0v184h185v-184h-185zM1024 0v184h184v-184h-184z" />
<glyph unicode="&#x202f;" horiz-adv-x="385" />
<glyph unicode="&#x2039;" horiz-adv-x="634" d="M92 512l287 399h164l-287 -399l287 -399h-164z" />
<glyph unicode="&#x203a;" horiz-adv-x="634" d="M92 113l287 399l-287 399h164l287 -399l-287 -399h-164z" />
<glyph unicode="&#x205f;" horiz-adv-x="481" />
<glyph unicode="&#x20ac;" horiz-adv-x="1454" d="M51 492v143h185v164h-185v143h205q37 146 126.5 260t232.5 183t317 69q142 0 229.5 -24t200.5 -78v-154q-113 54 -200.5 78t-229.5 24q-192 0 -318.5 -97.5t-183.5 -260.5h645v-143h-665v-164h665v-143h-645q55 -164 183 -261.5t319 -97.5q141 0 228.5 24t201.5 79v-154 q-113 -54 -200.5 -78t-229.5 -24q-260 0 -440.5 144t-235.5 368h-205z" />
<glyph unicode="&#x2122;" horiz-adv-x="1505" d="M41 1321v113h502v-113h-195v-502h-112v502h-195zM655 819v615h205l154 -461h20l154 461h205v-615h-113v492h-20l-164 -492h-144l-164 492h-20v-492h-113z" />
<glyph unicode="&#x25fc;" horiz-adv-x="1024" d="M0 0v1024h1024v-1024h-1024z" />
</font>
</defs>
</svg>
