<?xml version="1.0" standalone="no"?>
<!DOCTYPE svg PUBLIC "-//W3C//DTD SVG 1.1//EN" "http://www.w3.org/Graphics/SVG/1.1/DTD/svg11.dtd" >
<svg xmlns="http://www.w3.org/2000/svg" xmlns:xlink="http://www.w3.org/1999/xlink" version="1.1">
<metadata></metadata>
<defs>
<font id="tt_hovesmedium" horiz-adv-x="1187" >
<font-face units-per-em="2048" ascent="1434" descent="-614" />
<missing-glyph horiz-adv-x="481" />
<glyph unicode="&#xfb01;" horiz-adv-x="1095" d="M51 829v195h164v184q0 92 61.5 153.5t153.5 61.5h184v-184h-133q-61 0 -61 -61v-154h543v-1024h-205v829h-338v-829h-205v829h-164zM748 1208v215h225v-215h-225z" />
<glyph unicode="&#xfb02;" horiz-adv-x="1105" d="M51 829v195h164v184q0 100 57.5 157.5t157.5 57.5h533v-1423h-205v1239h-277q-61 0 -61 -61v-154h194v-195h-194v-829h-205v829h-164z" />
<glyph unicode="&#xfb03;" horiz-adv-x="1638" d="M51 829v195h164v184q0 92 61.5 153.5t153.5 61.5h205v-184h-154q-61 0 -61 -61v-154h338v184q0 92 61.5 153.5t153.5 61.5h184v-184h-133q-61 0 -61 -61v-154h542v-1024h-205v829h-337v-829h-205v829h-338v-829h-205v829h-164zM1290 1208v215h226v-215h-226z" />
<glyph unicode="&#xfb04;" horiz-adv-x="1648" d="M51 829v195h164v184q0 92 61.5 153.5t153.5 61.5h205v-184h-154q-61 0 -61 -61v-154h338v184q0 100 57.5 157.5t157.5 57.5h532v-1423h-205v1239h-276q-61 0 -61 -61v-154h194v-195h-194v-829h-205v829h-338v-829h-205v829h-164z" />
<glyph horiz-adv-x="0" />
<glyph horiz-adv-x="682" />
<glyph horiz-adv-x="0" />
<glyph horiz-adv-x="0" />
<glyph unicode="&#xd;" horiz-adv-x="0" />
<glyph unicode=" "  horiz-adv-x="481" />
<glyph unicode="&#x09;" horiz-adv-x="481" />
<glyph unicode="&#xa0;" horiz-adv-x="481" />
<glyph unicode="!" horiz-adv-x="563" d="M164 0v236h235v-236h-235zM174 850v584h215v-584l-31 -481h-153z" />
<glyph unicode="&#x22;" horiz-adv-x="778" d="M123 983v451h194v-451h-194zM461 983v451h194v-451h-194z" />
<glyph unicode="#" horiz-adv-x="1433" d="M20 369l41 184h283l72 328h-283l41 184h281l77 369h195l-80 -369h287l80 369h194l-80 -369h285l-41 -184h-282l-70 -328h280l-40 -184h-281l-78 -369h-194l79 369h-288l-78 -369h-195l80 369h-285zM537 553h288l70 328h-287z" />
<glyph unicode="$" horiz-adv-x="1280" d="M82 440h215q0 -104 97 -180t251 -76q169 0 248.5 58.5t79.5 156.5q0 159 -246 205l-276 51q-167 30 -252.5 129t-85.5 250q0 159 110.5 273.5t298.5 138.5v213h205v-211q212 -28 326 -152t114 -303h-215q0 105 -89.5 180.5t-237.5 75.5q-140 0 -218.5 -62t-78.5 -153 q0 -151 215 -194l225 -41q217 -38 318.5 -134t101.5 -266q0 -169 -120.5 -283.5t-340.5 -131.5v-209h-205v213q-139 19 -240 84.5t-150.5 160t-49.5 207.5z" />
<glyph unicode="%" horiz-adv-x="1607" d="M72 1126q0 138 94.5 233t232.5 95t233 -95t95 -233t-95 -232.5t-233 -94.5t-232.5 94.5t-94.5 232.5zM246 1126q0 -77 41.5 -120t111.5 -43t112 43t42 120t-42 120.5t-112 43.5t-111.5 -43.5t-41.5 -120.5zM256 0l891 1434h205l-891 -1434h-205zM881 307q0 138 94.5 233 t232.5 95t233 -95t95 -233t-95 -232.5t-233 -94.5t-232.5 94.5t-94.5 232.5zM1055 307q0 -77 41.5 -120.5t111.5 -43.5t112 43.5t42 120.5t-42 120.5t-112 43.5t-111.5 -43.5t-41.5 -120.5z" />
<glyph unicode="&#x26;" horiz-adv-x="1310" d="M82 358q0 114 46.5 188.5t147.5 149.5l72 62l-82 82q-63 63 -87.5 119.5t-24.5 146.5q0 150 107.5 249t281.5 99q166 0 277.5 -105t111.5 -253q0 -172 -174 -297l-113 -82l287 -307q27 61 35 84q37 101 37 182h215q0 -149 -72 -297q-39 -72 -72 -113l256 -266h-276 l-123 133q-50 -43 -111 -78q-138 -75 -278 -75q-216 0 -338.5 106t-122.5 272zM297 358q0 -76 65.5 -135t180.5 -59q88 0 156.5 25.5t109.5 66.5l-328 358l-61 -51q-61 -42 -92 -87.5t-31 -117.5zM369 1096q0 -69 71 -144l82 -92l82 62q62 47 87.5 82t25.5 92q0 78 -48 126 t-126 48q-80 0 -127 -53.5t-47 -120.5z" />
<glyph unicode="'" horiz-adv-x="440" d="M123 983v451h194v-451h-194z" />
<glyph unicode="(" horiz-adv-x="686" d="M143 543q0 531 287 952h215q-56 -78 -103.5 -167.5t-94 -209t-73 -268.5t-26.5 -307t26.5 -307t73 -269t94 -209.5t103.5 -167.5h-215q-287 421 -287 953z" />
<glyph unicode=")" horiz-adv-x="686" d="M41 -410q56 78 103.5 167.5t94 209.5t73 269t26.5 307t-26.5 307t-73 268.5t-94 209t-103.5 167.5h215q287 -421 287 -952q0 -532 -287 -953h-215z" />
<glyph unicode="*" horiz-adv-x="983" d="M82 1065l51 164l287 -103l-21 308h185l-21 -308l287 103l51 -164l-297 -72l195 -225l-133 -113l-174 256l-175 -256l-133 113l195 225z" />
<glyph unicode="+" horiz-adv-x="1116" d="M102 502v184h359v389h194v-389h359v-184h-359v-389h-194v389h-359z" />
<glyph unicode="," horiz-adv-x="481" d="M92 -174l41 410h236l-113 -410h-164z" />
<glyph unicode="-" horiz-adv-x="860" d="M92 492v184h676v-184h-676z" />
<glyph unicode="." horiz-adv-x="481" d="M123 0v236h235v-236h-235z" />
<glyph unicode="/" horiz-adv-x="768" d="M0 -410l563 1905h205l-563 -1905h-205z" />
<glyph unicode="0" horiz-adv-x="1351" d="M102 717q0 171 46.5 312t125.5 233t182.5 142t219.5 50t219.5 -50t182.5 -142t125 -233t46 -312t-46 -312t-125 -233t-182.5 -142t-219.5 -50t-219.5 50t-182.5 142t-125.5 233t-46.5 312zM317 717q0 -130 29.5 -233.5t80.5 -168t114.5 -98t134.5 -33.5t134.5 33.5 t114 98t80 168t29.5 233.5t-29.5 233.5t-80 167.5t-114 97.5t-134.5 33.5t-134.5 -33.5t-114.5 -97.5t-80.5 -167.5t-29.5 -233.5z" />
<glyph unicode="1" horiz-adv-x="716" d="M51 1075v205h236q61 0 61 61v93h215v-1434h-215v1075h-297z" />
<glyph unicode="2" horiz-adv-x="1126" d="M92 973q0 214 131.5 347.5t339.5 133.5t334.5 -124t126.5 -326q0 -62 -16 -117.5t-49 -105.5t-63 -85t-77 -82l-399 -399v-10h624v-205h-942v184l590 594q59 59 83 106t24 120q0 116 -63 180.5t-173 64.5q-109 0 -182.5 -77.5t-73.5 -198.5h-215z" />
<glyph unicode="3" horiz-adv-x="1146" d="M72 410h215q0 -89 78.5 -157.5t197.5 -68.5q127 0 196.5 61.5t69.5 164.5q0 96 -74.5 160.5t-201.5 64.5h-92v194h92q120 0 188 60t68 155q0 89 -66 147t-180 58q-115 0 -185.5 -58.5t-70.5 -146.5h-215q0 172 130 291t341 119q204 0 332.5 -119t128.5 -291 q0 -139 -102 -237q-47 -44 -103 -70v-10q63 -28 113 -72q112 -104 112 -256q0 -179 -134.5 -299t-346.5 -120q-218 0 -354.5 124t-136.5 306z" />
<glyph unicode="4" horiz-adv-x="1126" d="M31 307v174l542 953h338v-932h174v-195h-174v-307h-215v307h-665zM287 502h409v665h-41l-368 -655v-10z" />
<glyph unicode="5" horiz-adv-x="1177" d="M92 389h215q19 -86 90 -145.5t187 -59.5q130 0 208 78t78 209q0 124 -78 200.5t-208 76.5q-80 0 -140.5 -29.5t-95.5 -73.5h-225l82 789h799v-205h-615l-41 -348h10q109 71 256 71q202 0 336.5 -136.5t134.5 -344.5q0 -216 -139.5 -353.5t-361.5 -137.5q-98 0 -179 26.5 t-134.5 68t-92.5 96.5t-59 109t-27 109z" />
<glyph unicode="6" horiz-adv-x="1167" d="M82 471q0 155 82 287l430 676h246l-318 -492h10l27 4q48 6 66 6q126 0 232 -64.5t167 -175t61 -241.5q0 -208 -143.5 -349.5t-357.5 -141.5t-358 141.5t-144 349.5zM297 471q0 -123 82 -205t205 -82t204.5 82t81.5 205t-81.5 205t-204.5 82t-205 -82t-82 -205z" />
<glyph unicode="7" horiz-adv-x="1044" d="M51 1229v205h932v-185l-512 -1249h-238l504 1229h-686z" />
<glyph unicode="8" horiz-adv-x="1167" d="M92 399q0 153 107 260q49 49 108 78v11q-53 27 -92 69q-92 96 -92 238q0 167 126 283t335 116t334.5 -116t125.5 -283q0 -142 -92 -238q-39 -42 -92 -69v-11q60 -31 107 -78q108 -108 108 -260q0 -84 -34.5 -160t-96.5 -133.5t-155.5 -91.5t-204.5 -34q-148 0 -261.5 58 t-172 153t-58.5 208zM307 410q0 -100 78 -168t199 -68t198.5 68t77.5 168t-77.5 167.5t-198.5 67.5t-199 -67.5t-78 -167.5zM338 1044q0 -95 66 -155t180 -60t179.5 60t65.5 155t-65.5 155.5t-179.5 60.5t-180 -60.5t-66 -155.5z" />
<glyph unicode="9" horiz-adv-x="1167" d="M82 963q0 208 144 349.5t358 141.5t357.5 -141.5t143.5 -349.5q0 -157 -81 -287l-431 -676h-245l317 492h-10l-27 -7q-32 -4 -65 -4q-126 0 -232 64.5t-167.5 175.5t-61.5 242zM297 963q0 -123 82 -205t205 -82t204.5 82t81.5 205t-81.5 204.5t-204.5 81.5t-205 -81.5 t-82 -204.5z" />
<glyph unicode=":" horiz-adv-x="481" d="M123 0v236h235v-236h-235zM123 788v236h235v-236h-235z" />
<glyph unicode=";" horiz-adv-x="481" d="M92 -174l41 410h236l-113 -410h-164zM133 788v236h236v-236h-236z" />
<glyph unicode="&#x3c;" horiz-adv-x="1116" d="M113 492v204l891 369v-215l-635 -256l635 -256v-215z" />
<glyph unicode="=" horiz-adv-x="1095" d="M143 317v185h809v-185h-809zM143 686v184h809v-184h-809z" />
<glyph unicode="&#x3e;" horiz-adv-x="1116" d="M113 123v215l635 256l-635 256v215l891 -369v-204z" />
<glyph unicode="?" horiz-adv-x="1054" d="M51 1044q0 173 126 291.5t335 118.5q211 0 341 -115.5t130 -294.5q0 -251 -225 -358q-81 -36 -112.5 -86.5t-31.5 -118.5v-112h-215v112q0 133 44 214t151 134q89 43 131.5 84.5t42.5 110.5q0 100 -70 162.5t-186 62.5q-118 0 -182 -57.5t-64 -147.5h-215zM389 0v236h236 v-236h-236z" />
<glyph unicode="@" horiz-adv-x="1914" d="M113 594q0 237 109.5 424.5t303.5 291t437 103.5q188 0 349.5 -61t273 -167t174.5 -251t63 -309q0 -231 -97.5 -346t-271.5 -115q-105 0 -182 61q-29 23 -53 62h-11q-32 -36 -73 -62q-96 -61 -213 -61q-178 0 -294 118t-116 302t116 302t294 118q96 0 182 -48 q33 -19 63 -45h11l20 82h154v-542q0 -54 27 -83.5t75 -29.5q83 0 133.5 70.5t50.5 216.5q0 266 -188.5 440t-486.5 174q-186 0 -338.5 -83.5t-240 -231.5t-87.5 -330q0 -132 49.5 -248t135.5 -199t208 -130.5t262 -47.5h420v-174h-420q-185 0 -342.5 60.5t-266 166.5 t-169.5 253.5t-61 318.5zM696 584q0 -115 67 -185.5t169 -70.5t168.5 70.5t66.5 185.5t-66.5 185.5t-168.5 70.5t-169 -70.5t-67 -185.5z" />
<glyph unicode="A" horiz-adv-x="1372" d="M0 0l522 1434h328l522 -1434h-235l-123 338h-656l-122 -338h-236zM430 532h512l-235 656h-41z" />
<glyph unicode="B" horiz-adv-x="1331" d="M154 0v1434h634q176 0 293 -115.5t117 -284.5q0 -135 -78 -233q-34 -43 -76 -74v-10q47 -26 86 -74q89 -106 89 -244q0 -169 -116 -284t-288 -115h-661zM369 195h430q85 0 145 62t60 153t-60 153t-145 62h-430v-430zM369 809h409q85 0 145 62t60 153t-60 153t-145 62 h-409v-430z" />
<glyph unicode="C" horiz-adv-x="1495" d="M92 717q0 161 54.5 300t147 234t218.5 149t266 54q130 0 243 -42t192.5 -113.5t133 -160t76.5 -186.5h-225q-53 143 -166 220t-254 77q-205 0 -338 -145t-133 -387t133 -387.5t338 -145.5q85 0 157.5 26t123.5 70.5t85.5 98t53.5 113.5h225q-15 -70 -48 -139.5 t-89 -137.5t-127.5 -119.5t-170 -83.5t-210.5 -32q-140 0 -266 54t-218.5 149t-147 234t-54.5 300z" />
<glyph unicode="D" horiz-adv-x="1433" d="M154 0v1434h501q193 0 349.5 -91.5t246.5 -256t90 -369.5t-90 -369.5t-246.5 -256t-349.5 -91.5h-501zM369 205h286q203 0 337 143t134 369t-134 369t-337 143h-286v-1024z" />
<glyph unicode="E" horiz-adv-x="1208" d="M154 0v1434h942v-205h-727v-410h686v-205h-686v-409h727v-205h-942z" />
<glyph unicode="F" horiz-adv-x="1167" d="M154 0v1434h921v-205h-706v-410h665v-205h-665v-614h-215z" />
<glyph unicode="G" horiz-adv-x="1566" d="M92 717q0 161 54.5 300t147 234t218.5 149t266 54q129 0 242.5 -41.5t193 -112t133 -156.5t76.5 -181h-225q-53 137 -165.5 211.5t-254.5 74.5q-205 0 -338 -145t-133 -387t133 -387.5t338 -145.5q89 0 172 33t141 86.5t93 122t35 137.5v10h-400v175h615v-748h-174 l-21 184h-10q-41 -51 -111 -102q-148 -102 -340 -102q-140 0 -266 54t-218.5 149t-147 234t-54.5 300z" />
<glyph unicode="H" horiz-adv-x="1464" d="M154 0v1434h215v-605h727v605h215v-1434h-215v625h-727v-625h-215z" />
<glyph unicode="I" horiz-adv-x="522" d="M154 0v1434h215v-1434h-215z" />
<glyph unicode="J" horiz-adv-x="808" d="M20 0v205h336q42 0 68.5 27.5t26.5 74.5v1127h215v-1168q0 -129 -63 -197.5t-204 -68.5h-379z" />
<glyph unicode="K" horiz-adv-x="1208" d="M154 0v1434h215v-656l549 656h270l-594 -707l635 -727h-271l-589 676v-676h-215z" />
<glyph unicode="L" horiz-adv-x="1105" d="M154 0v1434h215v-1229h696v-205h-911z" />
<glyph unicode="M" horiz-adv-x="1843" d="M154 0v1434h368l379 -1127h41l379 1127h369v-1434h-215v1096h-41l-369 -1096h-287l-368 1096h-41v-1096h-215z" />
<glyph unicode="N" horiz-adv-x="1464" d="M154 0v1434h317l584 -1117h41v1117h215v-1434h-318l-583 1116h-41v-1116h-215z" />
<glyph unicode="O" horiz-adv-x="1556" d="M92 717q0 161 54.5 300t147 234t218.5 149t266 54t266 -54t218.5 -149t147 -234t54.5 -300t-54.5 -300t-147 -234t-218.5 -149t-266 -54t-266 54t-218.5 149t-147 234t-54.5 300zM307 717q0 -242 133 -387.5t338 -145.5t338 145.5t133 387.5t-133 387t-338 145t-338 -145 t-133 -387z" />
<glyph unicode="P" horiz-adv-x="1310" d="M154 0v1434h645q180 0 300 -127.5t120 -333.5t-120 -333.5t-300 -127.5h-430v-512h-215zM369 717h419q89 0 152.5 72t63.5 184t-63.5 184t-152.5 72h-419v-512z" />
<glyph unicode="Q" horiz-adv-x="1556" d="M92 717q0 161 54.5 300t147 234t218.5 149t266 54t266 -54t218.5 -149t147 -234t54.5 -300q0 -332 -209 -541l230 -237h-256l-121 124q-151 -83 -330 -83q-140 0 -266 54t-218.5 149t-147 234t-54.5 300zM307 717q0 -242 133 -387.5t338 -145.5q93 0 180 35l-282 293h256 l180 -186q137 143 137 391q0 242 -133 387t-338 145t-338 -145t-133 -387z" />
<glyph unicode="R" horiz-adv-x="1331" d="M154 0v1434h645q180 0 300 -127.5t120 -333.5t-120 -333.5t-300 -127.5h-51l512 -512h-277l-512 512h-102v-512h-215zM369 717h419q89 0 152.5 72t63.5 184t-63.5 184t-152.5 72h-419v-512z" />
<glyph unicode="S" horiz-adv-x="1280" d="M82 440h215q0 -104 97 -180t251 -76q169 0 248.5 58.5t79.5 156.5q0 159 -246 205l-276 51q-167 30 -252.5 129t-85.5 250q0 181 139.5 300.5t372.5 119.5q131 0 235 -36t170.5 -99t101.5 -146t35 -180h-215q0 105 -89.5 180.5t-237.5 75.5q-140 0 -218.5 -62t-78.5 -153 q0 -151 215 -194l225 -41q217 -38 318.5 -134t101.5 -266q0 -185 -142 -302t-401 -117q-131 0 -238.5 36t-178 98t-108.5 146t-38 180z" />
<glyph unicode="T" horiz-adv-x="1198" d="M41 1229v205h1116v-205h-450v-1229h-215v1229h-451z" />
<glyph unicode="U" horiz-adv-x="1433" d="M143 573v861h215v-861q0 -175 101.5 -282t257.5 -107t257 107t101 282v861h215v-861q0 -268 -159 -430.5t-414 -162.5t-414.5 162.5t-159.5 430.5z" />
<glyph unicode="V" horiz-adv-x="1351" d="M10 1434h236l409 -1188h41l410 1188h235l-501 -1434h-328z" />
<glyph unicode="W" horiz-adv-x="2007" d="M20 1434h236l276 -1127h41l297 1127h267l297 -1127h41l276 1127h236l-359 -1434h-328l-276 1075h-41l-276 -1075h-328z" />
<glyph unicode="X" horiz-adv-x="1290" d="M0 0l512 737l-481 697h245l349 -502h41l348 502h246l-482 -697l512 -737h-246l-378 543h-41l-379 -543h-246z" />
<glyph unicode="Y" horiz-adv-x="1239" d="M-10 1434h237l377 -666h41l367 666h237l-522 -922v-512h-215v512z" />
<glyph unicode="Z" horiz-adv-x="1208" d="M72 0v184l768 1045h-758v205h1044v-185l-768 -1044h779v-205h-1065z" />
<glyph unicode="[" horiz-adv-x="696" d="M164 -410v1905h461v-184h-256v-1536h256v-185h-461z" />
<glyph unicode="\" horiz-adv-x="768" d="M0 1495h205l563 -1905h-205z" />
<glyph unicode="]" horiz-adv-x="696" d="M72 -225h256v1536h-256v184h460v-1905h-460v185z" />
<glyph unicode="^" horiz-adv-x="870" d="M102 860l226 574h215l225 -574h-184q-24 68 -72.5 187.5t-71.5 181.5h-10q-23 -62 -71 -181.5t-72 -187.5h-185z" />
<glyph unicode="_" horiz-adv-x="778" d="M-41 -205h860v-184h-860v184z" />
<glyph unicode="`" horiz-adv-x="552" d="M61 1505h226l205 -297h-185z" />
<glyph unicode="a" horiz-adv-x="1095" d="M92 297q0 159 105.5 248.5t314.5 89.5h256v20q0 100 -57.5 157.5t-157.5 57.5q-98 0 -152 -44t-63 -99h-205q8 135 121.5 226t298.5 91q199 0 309.5 -104.5t110.5 -284.5v-655h-174l-21 113h-10q-30 -41 -74 -68q-97 -65 -233 -65q-167 0 -268 88t-101 229zM297 307 q0 -71 47 -112t137 -41q139 0 213 72.5t74 203.5v41h-246q-112 0 -168.5 -45.5t-56.5 -118.5z" />
<glyph unicode="b" horiz-adv-x="1228" d="M143 0v1434h205v-533h10q20 23 28 31.5t41 34.5t62 39t80 25.5t107 12.5q205 0 338 -145t133 -387t-133 -387t-338 -145q-210 0 -318 143h-10l-20 -123h-185zM348 512q0 -156 85.5 -252t211.5 -96t211.5 96t85.5 252t-85.5 252t-211.5 96t-211.5 -96t-85.5 -252z" />
<glyph unicode="c" horiz-adv-x="1136" d="M82 512q0 236 144 384t368 148q88 0 163.5 -25t126 -63.5t89.5 -89.5t60 -97.5t32 -92.5h-205q-29 80 -93.5 132t-172.5 52q-133 0 -220 -95.5t-87 -252.5t87 -252.5t220 -95.5q111 0 178 59.5t88 134.5h205q-14 -64 -45.5 -125t-86 -120.5t-142.5 -96t-197 -36.5 q-224 0 -368 148t-144 384z" />
<glyph unicode="d" horiz-adv-x="1228" d="M82 512q0 242 133 387t338 145q67 0 122 -14.5t93 -39.5t57.5 -43t39.5 -40q3 -4 5 -6h11v533h204v-1434h-184l-20 123h-11q-108 -143 -317 -143q-205 0 -338 145t-133 387zM287 512q0 -156 85.5 -252t211.5 -96t211.5 96t85.5 252t-85.5 252t-211.5 96t-211.5 -96 t-85.5 -252z" />
<glyph unicode="e" horiz-adv-x="1167" d="M82 512q0 236 144 384t368 148q208 0 349.5 -143.5t141.5 -357.5q0 -20 -6 -74l-4 -29h-788q17 -131 100.5 -208.5t206.5 -77.5q87 0 153 42t93 101h215q-16 -43 -41 -84.5t-66 -84.5t-90.5 -75t-118 -52.5t-145.5 -20.5q-224 0 -368 148t-144 384zM287 594h604 q-18 125 -97 200.5t-200 75.5q-126 0 -204.5 -74t-102.5 -202z" />
<glyph unicode="f" horiz-adv-x="686" d="M51 829v195h164v184q0 92 61.5 153.5t153.5 61.5h205v-184h-154q-61 0 -61 -61v-154h215v-195h-215v-829h-205v829h-164z" />
<glyph unicode="g" horiz-adv-x="1198" d="M82 553q0 219 128 355t322 136q204 0 318 -133h10l21 113h184v-1004q0 -205 -127 -327.5t-354 -122.5q-97 0 -177.5 25t-132 64t-88 89.5t-53.5 98t-20 92.5h204q8 -75 79 -130t188 -55q122 0 199 75t77 191v164h-10q-26 -26 -45 -41t-57.5 -37.5t-92.5 -33.5t-123 -11 q-194 0 -322 136.5t-128 355.5zM287 553q0 -137 81 -222t205 -85t205.5 85t81.5 222t-81.5 222t-205.5 85t-205 -85t-81 -222z" />
<glyph unicode="h" d="M143 0v1434h205v-512h10q36 36 76 61q96 61 221 61q186 0 298 -115.5t112 -314.5v-614h-205v614q0 101 -71 173.5t-175 72.5q-114 0 -190 -72.5t-76 -173.5v-614h-205z" />
<glyph unicode="i" horiz-adv-x="471" d="M123 1219v215h225v-215h-225zM133 0v1024h205v-1024h-205z" />
<glyph unicode="j" horiz-adv-x="471" d="M-92 -225h164q61 0 61 71v1178h205v-1219q0 -101 -58.5 -158t-166.5 -57h-205v185zM123 1219v215h225v-215h-225z" />
<glyph unicode="k" horiz-adv-x="1034" d="M143 0v1434h205v-881l430 471h246l-461 -502l481 -522h-245l-451 492v-492h-205z" />
<glyph unicode="l" horiz-adv-x="491" d="M143 0v1434h205v-1434h-205z" />
<glyph unicode="m" horiz-adv-x="1730" d="M133 0v1024h184l21 -102h10q27 31 72 61q92 61 194 61q128 0 215 -71q43 -39 62 -72h10q25 34 80 72q112 71 258 71q160 0 264.5 -111.5t104.5 -285.5v-647h-205v645q0 99 -56 157t-149 58q-94 0 -159.5 -61.5t-65.5 -153.5v-645h-205v645q0 99 -56 157t-149 58 q-94 0 -159.5 -61.5t-65.5 -153.5v-645h-205z" />
<glyph unicode="n" horiz-adv-x="1177" d="M133 0v1024h184l21 -102h10q36 36 76 61q96 61 221 61q186 0 298 -115.5t112 -314.5v-614h-205v614q0 101 -71 173.5t-175 72.5q-114 0 -190 -72.5t-76 -173.5v-614h-205z" />
<glyph unicode="o" d="M82 512q0 236 144 384t368 148t368 -148t144 -384t-144 -384t-368 -148t-368 148t-144 384zM287 512q0 -157 87 -252.5t220 -95.5t220 95.5t87 252.5t-87 252.5t-220 95.5t-220 -95.5t-87 -252.5z" />
<glyph unicode="p" horiz-adv-x="1218" d="M133 -410v1434h184l21 -123h10q20 23 28 31.5t41 34.5t62 39t80 25.5t107 12.5q205 0 338 -145t133 -387t-133 -387t-338 -145q-210 0 -318 143h-10v-533h-205zM338 512q0 -156 85.5 -252t211.5 -96t211.5 96t85.5 252t-85.5 252t-211.5 96t-211.5 -96t-85.5 -252z" />
<glyph unicode="q" horiz-adv-x="1218" d="M82 512q0 242 133 387t338 145q67 0 122 -14.5t93 -39.5t57.5 -43t39.5 -40q3 -4 5 -6h11l20 123h184v-1434h-204v533h-11q-108 -143 -317 -143q-205 0 -338 145t-133 387zM287 512q0 -156 85.5 -252t211.5 -96t211.5 96t85.5 252t-85.5 252t-211.5 96t-211.5 -96 t-85.5 -252z" />
<glyph unicode="r" horiz-adv-x="737" d="M133 0v1024h174l21 -92h10q1 1 14.5 17t17.5 19t18.5 16t25.5 17t29.5 11t40.5 9.5t48 2.5h185v-184h-164q-215 0 -215 -213v-627h-205z" />
<glyph unicode="s" horiz-adv-x="993" d="M61 307h205q0 -54 62 -103.5t174 -49.5q107 0 161 39.5t54 93.5q0 56 -35 88t-119 45l-184 31q-150 25 -223.5 96.5t-73.5 200.5q0 130 105.5 213t304.5 83q85 0 157 -22t119 -57t80.5 -78t48 -83.5t14.5 -76.5h-204q0 54 -54.5 98.5t-160.5 44.5q-102 0 -153.5 -35 t-51.5 -87q0 -46 41 -77.5t112 -45.5l185 -31q297 -49 297 -307q0 -63 -26 -117.5t-76 -97.5t-132 -67.5t-186 -24.5q-94 0 -171.5 23.5t-126 59t-82 80.5t-47.5 86.5t-14 77.5z" />
<glyph unicode="t" horiz-adv-x="747" d="M51 829v195h164v287h205v-287h235v-195h-235v-583q0 -62 61 -62h174v-184h-215q-108 0 -166.5 57t-58.5 158v614h-164z" />
<glyph unicode="u" d="M133 410v614h205v-614q0 -101 71 -173.5t175 -72.5q114 0 190 72.5t76 173.5v614h205v-1024h-185l-20 102h-10q-36 -36 -76 -61q-96 -61 -221 -61q-186 0 -298 115.5t-112 314.5z" />
<glyph unicode="v" horiz-adv-x="1044" d="M10 1024h215l277 -799h41l276 799h215l-358 -1024h-307z" />
<glyph unicode="w" horiz-adv-x="1617" d="M20 1024h216l194 -758h41l201 758h274l201 -758h41l194 758h215l-276 -1024h-297l-195 737h-41l-194 -737h-297z" />
<glyph unicode="x" horiz-adv-x="1024" d="M10 0l348 532l-338 492h236l236 -348h40l236 348h236l-338 -492l348 -532h-236l-246 379h-40l-246 -379h-236z" />
<glyph unicode="y" horiz-adv-x="1054" d="M10 1024h215l297 -778h41l266 778h215l-450 -1260q-33 -90 -89.5 -132t-166.5 -42h-215v185h205q28 0 45.5 19.5t23.5 41.5l33 92z" />
<glyph unicode="z" horiz-adv-x="931" d="M61 0v184l533 645h-522v195h788v-184l-532 -645h542v-195h-809z" />
<glyph unicode="{" horiz-adv-x="706" d="M102 430v225q144 0 144 113v471q0 117 71.5 186.5t194.5 69.5h123v-174h-82q-102 0 -102 -102v-471q0 -106 -89 -158q-44 -24 -86 -27v-41q44 -3 86 -26q89 -52 89 -158v-471q0 -103 102 -103h82v-174h-123q-123 0 -194.5 69.5t-71.5 186.5v471q0 113 -144 113z" />
<glyph unicode="|" horiz-adv-x="696" d="M246 -410v1905h205v-1905h-205z" />
<glyph unicode="}" horiz-adv-x="706" d="M72 -236h82q102 0 102 103v471q0 108 86 158q42 23 88 26v41q-44 3 -88 27q-86 50 -86 158v471q0 102 -102 102h-82v174h123q123 0 194.5 -69.5t71.5 -186.5v-471q0 -56 33.5 -84.5t109.5 -28.5v-225q-76 0 -109.5 -28.5t-33.5 -84.5v-471q0 -117 -71.5 -186.5 t-194.5 -69.5h-123v174z" />
<glyph unicode="~" d="M82 379q0 188 83 283.5t234 95.5q55 0 103.5 -19t83 -46t65.5 -54.5t63.5 -46.5t63.5 -19q57 0 90 43t33 132h205q0 -188 -83.5 -283.5t-234.5 -95.5q-55 0 -103 19t-82.5 46t-65.5 54t-63.5 46t-63.5 19q-57 0 -90 -42.5t-33 -131.5h-205z" />
<glyph unicode="&#xa1;" horiz-adv-x="563" d="M164 788v236h235v-236h-235zM174 174l31 481h153l31 -481v-584h-215v584z" />
<glyph unicode="&#xa2;" horiz-adv-x="1136" d="M82 512q0 208 112.5 348.5t297.5 173.5v226h204v-226q67 -12 125 -41.5t98 -67t71 -82t48.5 -86t26.5 -81.5h-205q-29 80 -93.5 132t-172.5 52q-133 0 -220 -95.5t-87 -252.5t87 -252.5t220 -95.5q111 0 178 59.5t88 134.5h205q-9 -43 -26.5 -86.5t-48.5 -90t-71 -84 t-98 -67t-125 -40.5v-215h-204v215q-185 33 -297.5 173.5t-112.5 348.5z" />
<glyph unicode="&#xa3;" horiz-adv-x="1239" d="M72 0v205h61q113 0 113 112v287h-174v174h174v256q0 187 122.5 303.5t327.5 116.5t328 -117t123 -303h-215q0 94 -64.5 154.5t-171.5 60.5t-171 -60.5t-64 -154.5v-256h399v-174h-399v-287q0 -55 -31 -90q-8 -9 -31 -22h789v-205h-1116z" />
<glyph unicode="&#xa4;" d="M154 399l110 131q-49 87 -49 187q0 97 49 184l-110 133l122 113l107 -117q95 66 211 66t211 -66l106 117l123 -113l-110 -133q49 -87 49 -184q0 -100 -49 -187l110 -131l-123 -112l-106 116q-94 -65 -211 -65t-211 65l-107 -116zM369 717q0 -94 65.5 -159.5t159.5 -65.5 q91 0 158 66t67 159q0 91 -67 158t-158 67q-93 0 -159 -67t-66 -158z" />
<glyph unicode="&#xa5;" horiz-adv-x="1239" d="M10 1434h238l356 -666h41l346 666h238l-367 -676h213v-174h-348v-144h348v-174h-348v-266h-215v266h-348v174h348v144h-348v174h211z" />
<glyph unicode="&#xa6;" horiz-adv-x="696" d="M246 358h205v-768h-205v768zM246 727v768h205v-768h-205z" />
<glyph unicode="&#xa7;" horiz-adv-x="1290" d="M123 614q0 106 65 199q27 41 68 68q-22 17 -47 53q-45 68 -45 151q0 160 125 264.5t346 104.5q231 0 366.5 -122.5t135.5 -307.5h-215q0 105 -76.5 175.5t-210.5 70.5q-125 0 -190.5 -51.5t-65.5 -133.5q0 -67 50.5 -103t164.5 -60l194 -41q210 -43 294.5 -125.5 t84.5 -233.5q0 -111 -61 -203q-22 -33 -62 -73q23 -20 46 -58q47 -80 47 -178q0 -154 -127 -256t-355 -102q-232 0 -372 123t-140 307h215q0 -104 81 -175t216 -71q133 0 200 50.5t67 133.5q0 154 -205 195l-205 41q-195 39 -292 126t-97 232zM338 614q0 -66 55 -108 t160 -66l174 -41q84 -19 111 -28q24 -10 43 -13q15 13 34 39q37 55 37 123q0 130 -204 176l-185 41q-46 10 -106 29l-37 12q-24 -21 -41 -43q-41 -55 -41 -121z" />
<glyph unicode="&#xa8;" horiz-adv-x="696" d="M61 1229v205h205v-205h-205zM430 1229v205h205v-205h-205z" />
<glyph unicode="&#xa9;" horiz-adv-x="1720" d="M123 717q0 155 56.5 292t154 234.5t234.5 154t292 56.5t292 -56.5t234.5 -154t154 -234.5t56.5 -292t-56.5 -292t-154 -234.5t-234.5 -154t-292 -56.5t-292 56.5t-234.5 154t-154 234.5t-56.5 292zM287 717q0 -252 163 -418t410 -166q245 0 409.5 166.5t164.5 417.5 t-164.5 417t-409.5 166q-163 0 -294 -75t-205 -208.5t-74 -299.5zM492 717q0 167 106.5 278t261.5 111q80 0 145.5 -27t106 -70t64.5 -88.5t32 -91.5h-153q-52 134 -185 134q-95 0 -155 -66t-60 -180t60 -180t155 -66q139 0 185 143h153q-7 -33 -22 -69t-44.5 -75.5 t-67.5 -70.5t-94 -51t-120 -20q-155 0 -261.5 111t-106.5 278z" />
<glyph unicode="&#xaa;" horiz-adv-x="737" d="M72 993q0 90 64.5 142.5t193.5 52.5h162v20q0 53 -33 83t-88 30q-97 0 -115 -72h-164q18 92 88.5 148.5t188.5 56.5q128 0 202 -67.5t74 -178.5v-420h-123l-20 72h-10q-23 -31 -69.5 -56.5t-115.5 -25.5q-107 0 -171 60.5t-64 154.5zM225 993q0 -38 28 -60t75 -22 q77 0 120.5 42t43.5 112v10h-154q-113 0 -113 -82z" />
<glyph unicode="&#xab;" horiz-adv-x="1085" d="M82 512l287 410h215l-287 -410l287 -410h-215zM502 512l286 410h216l-287 -410l287 -410h-216z" />
<glyph unicode="&#xac;" horiz-adv-x="1105" d="M143 584v184h809v-451h-204v267h-605z" />
<glyph unicode="&#xad;" horiz-adv-x="860" d="M92 492v184h676v-184h-676z" />
<glyph unicode="&#xae;" horiz-adv-x="1720" d="M123 717q0 155 56.5 292t154 234.5t234.5 154t292 56.5t292 -56.5t234.5 -154t154 -234.5t56.5 -292t-56.5 -292t-154 -234.5t-234.5 -154t-292 -56.5t-292 56.5t-234.5 154t-154 234.5t-56.5 292zM287 717q0 -252 163 -418t410 -166q245 0 409.5 166.5t164.5 417.5 t-164.5 417t-409.5 166q-163 0 -294 -75t-205 -208.5t-74 -299.5zM584 348v748h327q115 0 191 -74t76 -182q0 -95 -67 -166.5t-148 -79.5l235 -246h-184l-236 246h-41v-246h-153zM737 717h174q48 0 80.5 35t32.5 88t-32.5 88t-80.5 35h-174v-246z" />
<glyph unicode="&#xaf;" horiz-adv-x="737" d="M61 1260v163h615v-163h-615z" />
<glyph unicode="&#xb0;" horiz-adv-x="778" d="M113 1178q0 117 77.5 196.5t198.5 79.5t199 -79.5t78 -196.5t-78 -197t-199 -80t-198.5 80t-77.5 197zM256 1178q0 -56 36.5 -95t96.5 -39t96.5 39t36.5 95t-36.5 94.5t-96.5 38.5t-96.5 -38.5t-36.5 -94.5z" />
<glyph unicode="&#xb1;" horiz-adv-x="1116" d="M102 0v184h912v-184h-912zM102 686v184h359v369h194v-369h359v-184h-359v-369h-194v369h-359z" />
<glyph unicode="&#xb2;" horiz-adv-x="696" d="M92 1403q0 110 70 178t186 68q110 0 178 -63t68 -163q0 -64 -26 -109t-87 -106l-174 -174v-10h297v-123h-502v113l287 286q62 62 62 123q0 47 -28 75t-75 28q-53 0 -82.5 -34t-29.5 -89h-144z" />
<glyph unicode="&#xb3;" horiz-adv-x="696" d="M82 1116h143q0 -40 31 -71t82 -31q54 0 83.5 27t29.5 75t-31.5 75.5t-91.5 27.5h-62v122h62q52 0 82 26.5t30 66.5q0 39 -28 65.5t-74 26.5t-74 -26.5t-28 -65.5h-144q0 88 71 151.5t175 63.5q114 0 180 -58t66 -147q0 -102 -92 -154v-10q102 -57 102 -164 q0 -96 -71.5 -160.5t-184.5 -64.5q-114 0 -185 63.5t-71 161.5z" />
<glyph unicode="&#xb4;" horiz-adv-x="552" d="M61 1208l205 297h226l-246 -297h-185z" />
<glyph unicode="&#xb5;" d="M133 -410v1434h205v-614q0 -101 71 -173.5t175 -72.5q114 0 190 72.5t76 173.5v614h205v-1024h-185l-20 102h-10q-35 -35 -74 -61q-92 -61 -203 -61q-98 0 -166 40q-30 16 -59 41v-471h-205z" />
<glyph unicode="&#xb6;" horiz-adv-x="1146" d="M92 1065q0 159 100 264t248 105h553v-1639h-194v1454h-164v-1454h-195v901q-148 0 -248 105t-100 264z" />
<glyph unicode="&#xb7;" horiz-adv-x="481" d="M123 430v236h235v-236h-235z" />
<glyph unicode="&#xb8;" horiz-adv-x="450" d="M61 -307h82q45 0 69 18t24 43q0 62 -93 62h-51v82l41 92h154l-41 -92q55 -9 99 -51t44 -113q0 -81 -54.5 -127.5t-160.5 -46.5h-113v133z" />
<glyph unicode="&#xb9;" horiz-adv-x="542" d="M72 1413v133h112q62 0 62 62v30h143v-737h-143v512h-174z" />
<glyph unicode="&#xba;" horiz-adv-x="798" d="M82 1116q0 153 88 245.5t229 92.5t229.5 -93t88.5 -245t-88.5 -245t-229.5 -93t-229 92.5t-88 245.5zM236 1116q0 -90 46 -142t117 -52t117.5 52t46.5 142t-46.5 142.5t-117.5 52.5t-117 -52.5t-46 -142.5z" />
<glyph unicode="&#xbb;" horiz-adv-x="1085" d="M82 102l287 410l-287 410h215l287 -410l-287 -410h-215zM502 102l286 410l-286 410h215l287 -410l-287 -410h-215z" />
<glyph unicode="&#xbc;" horiz-adv-x="1382" d="M82 1208v133h113q61 0 61 62v31h143v-738h-143v512h-174zM133 0l891 1434h164l-891 -1434h-164zM727 143v123l277 471h204v-461h103v-133h-103v-143h-143v143h-338zM901 276h164v267h-21l-143 -256v-11z" />
<glyph unicode="&#xbd;" horiz-adv-x="1443" d="M82 1208v133h113q61 0 61 62v31h143v-738h-143v512h-174zM133 0l891 1434h164l-891 -1434h-164zM819 502q0 110 70 178t186 68q110 0 178 -63t68 -163q0 -64 -26 -109t-87 -106l-174 -174v-10h297v-123h-502v113l287 286q62 62 62 123q0 47 -28 75t-75 28 q-53 0 -82.5 -34t-29.5 -89h-144z" />
<glyph unicode="&#xbe;" horiz-adv-x="1495" d="M82 911h143q0 -40 31 -71t82 -31q54 0 83.5 27t29.5 75t-31.5 75.5t-91.5 27.5h-62v123h62q52 0 82 26t30 66q0 39 -28 65.5t-74 26.5t-74 -26.5t-28 -65.5h-144q0 88 71 151.5t175 63.5q114 0 180 -58t66 -147q0 -102 -92 -154v-10q102 -57 102 -164q0 -96 -71.5 -160.5 t-184.5 -64.5q-114 0 -185 63.5t-71 161.5zM256 0l891 1434h164l-891 -1434h-164zM840 143v123l276 471h205v-461h102v-133h-102v-143h-143v143h-338zM1014 276h164v267h-21l-143 -256v-11z" />
<glyph unicode="&#xbf;" horiz-adv-x="1044" d="M72 -20q0 251 225 358q81 36 112 86.5t31 118.5v112h215v-112q0 -133 -43.5 -214t-150.5 -134q-90 -42 -132 -83.5t-42 -111.5q0 -100 70 -162.5t186 -62.5q118 0 181.5 57.5t63.5 147.5h216q0 -173 -126 -291.5t-335 -118.5q-214 0 -342.5 115t-128.5 295zM430 788v236 h236v-236h-236z" />
<glyph unicode="&#xc0;" horiz-adv-x="1372" d="M0 0l522 1434h328l522 -1434h-235l-123 338h-656l-122 -338h-236zM348 1874h225l205 -297h-184zM430 532h512l-235 656h-41z" />
<glyph unicode="&#xc1;" horiz-adv-x="1372" d="M0 0l522 1434h328l522 -1434h-235l-123 338h-656l-122 -338h-236zM430 532h512l-235 656h-41zM594 1577l205 297h225l-246 -297h-184z" />
<glyph unicode="&#xc2;" horiz-adv-x="1372" d="M0 0l522 1434h328l522 -1434h-235l-123 338h-656l-122 -338h-236zM348 1577l246 297h184l246 -297h-195l-143 174l-143 -174h-195zM430 532h512l-235 656h-41z" />
<glyph unicode="&#xc3;" horiz-adv-x="1372" d="M0 0l522 1434h328l522 -1434h-235l-123 338h-656l-122 -338h-236zM358 1608q0 113 59.5 174t155.5 61q43 0 84.5 -23t77 -46t64.5 -23q32 0 51.5 23t19.5 69h154q0 -113 -59.5 -174t-155.5 -61q-43 0 -84 23t-76.5 46t-64.5 23q-32 0 -52 -23.5t-20 -68.5h-154zM430 532 h512l-235 656h-41z" />
<glyph unicode="&#xc4;" horiz-adv-x="1372" d="M0 0l522 1434h328l522 -1434h-235l-123 338h-656l-122 -338h-236zM399 1628v205h205v-205h-205zM430 532h512l-235 656h-41zM768 1628v205h205v-205h-205z" />
<glyph unicode="&#xc5;" horiz-adv-x="1372" d="M0 0l522 1434h328l522 -1434h-235l-123 338h-656l-122 -338h-236zM430 532h512l-235 656h-41zM492 1741q0 86 54 140t140 54t140.5 -54t54.5 -140t-54.5 -140.5t-140.5 -54.5t-140 54.5t-54 140.5zM604 1741q0 -37 24.5 -59.5t57.5 -22.5t57.5 22.5t24.5 59.5t-24.5 59.5 t-57.5 22.5t-57.5 -22.5t-24.5 -59.5z" />
<glyph unicode="&#xc6;" horiz-adv-x="1925" d="M-31 0l625 1434h1218v-205h-727v-410h687v-205h-687v-409h727v-205h-942v338h-520l-145 -338h-236zM434 532h436v697h-133z" />
<glyph unicode="&#xc7;" horiz-adv-x="1495" d="M92 717q0 161 54.5 300t147 234t218.5 149t266 54q130 0 243 -42t192.5 -113.5t133 -160t76.5 -186.5h-225q-53 143 -166 220t-254 77q-205 0 -338 -145t-133 -387t133 -387.5t338 -145.5q85 0 157.5 26t123.5 70.5t85.5 98t53.5 113.5h225q-19 -85 -63 -166t-113 -155 t-173 -124.5t-228 -62.5l-37 -86q55 -9 99 -51t44 -113q0 -81 -54.5 -127.5t-160.5 -46.5h-112v133h82q45 0 68.5 18t23.5 43q0 62 -92 62h-52v82l39 88q-170 20 -306 114.5t-216 255.5t-80 361z" />
<glyph unicode="&#xc8;" horiz-adv-x="1208" d="M154 0v1434h942v-205h-727v-410h686v-205h-686v-409h727v-205h-942zM287 1874h225l205 -297h-185z" />
<glyph unicode="&#xc9;" horiz-adv-x="1208" d="M154 0v1434h942v-205h-727v-410h686v-205h-686v-409h727v-205h-942zM532 1577l205 297h226l-246 -297h-185z" />
<glyph unicode="&#xca;" horiz-adv-x="1208" d="M154 0v1434h942v-205h-727v-410h686v-205h-686v-409h727v-205h-942zM287 1577l245 297h185l246 -297h-195l-143 174l-144 -174h-194z" />
<glyph unicode="&#xcb;" horiz-adv-x="1208" d="M154 0v1434h942v-205h-727v-410h686v-205h-686v-409h727v-205h-942zM338 1628v205h205v-205h-205zM707 1628v205h204v-205h-204z" />
<glyph unicode="&#xcc;" horiz-adv-x="522" d="M-82 1874h225l205 -297h-184zM154 0v1434h215v-1434h-215z" />
<glyph unicode="&#xcd;" horiz-adv-x="522" d="M154 0v1434h215v-1434h-215zM174 1577l205 297h225l-246 -297h-184z" />
<glyph unicode="&#xce;" horiz-adv-x="522" d="M-72 1577l246 297h184l246 -297h-194l-144 174l-143 -174h-195zM154 0v1434h215v-1434h-215z" />
<glyph unicode="&#xcf;" horiz-adv-x="522" d="M-20 1628v205h204v-205h-204zM154 0v1434h215v-1434h-215zM348 1628v205h205v-205h-205z" />
<glyph unicode="&#xd0;" horiz-adv-x="1505" d="M31 625v194h194v615h502q193 0 349.5 -91.5t246.5 -256t90 -369.5t-90 -369.5t-246.5 -256t-349.5 -91.5h-502v625h-194zM440 205h287q203 0 337 143t134 369t-134 369t-337 143h-287v-410h348v-194h-348v-420z" />
<glyph unicode="&#xd1;" horiz-adv-x="1464" d="M154 0v1434h317l584 -1117h41v1117h215v-1434h-318l-583 1116h-41v-1116h-215zM410 1608q0 113 59.5 174t155.5 61q43 0 84 -23t76.5 -46t64.5 -23q32 0 52 23.5t20 68.5h153q0 -113 -59.5 -174t-155.5 -61q-43 0 -84 23t-76.5 46t-64.5 23q-32 0 -52 -23.5t-20 -68.5 h-153z" />
<glyph unicode="&#xd2;" horiz-adv-x="1556" d="M92 717q0 161 54.5 300t147 234t218.5 149t266 54t266 -54t218.5 -149t147 -234t54.5 -300t-54.5 -300t-147 -234t-218.5 -149t-266 -54t-266 54t-218.5 149t-147 234t-54.5 300zM307 717q0 -242 133 -387.5t338 -145.5t338 145.5t133 387.5t-133 387t-338 145t-338 -145 t-133 -387zM451 1874h225l205 -297h-185z" />
<glyph unicode="&#xd3;" horiz-adv-x="1556" d="M92 717q0 161 54.5 300t147 234t218.5 149t266 54t266 -54t218.5 -149t147 -234t54.5 -300t-54.5 -300t-147 -234t-218.5 -149t-266 -54t-266 54t-218.5 149t-147 234t-54.5 300zM307 717q0 -242 133 -387.5t338 -145.5t338 145.5t133 387.5t-133 387t-338 145t-338 -145 t-133 -387zM696 1577l205 297h225l-245 -297h-185z" />
<glyph unicode="&#xd4;" horiz-adv-x="1556" d="M92 717q0 161 54.5 300t147 234t218.5 149t266 54t266 -54t218.5 -149t147 -234t54.5 -300t-54.5 -300t-147 -234t-218.5 -149t-266 -54t-266 54t-218.5 149t-147 234t-54.5 300zM307 717q0 -242 133 -387.5t338 -145.5t338 145.5t133 387.5t-133 387t-338 145t-338 -145 t-133 -387zM440 1577l246 297h184l246 -297h-194l-144 174l-143 -174h-195z" />
<glyph unicode="&#xd5;" horiz-adv-x="1556" d="M92 717q0 161 54.5 300t147 234t218.5 149t266 54t266 -54t218.5 -149t147 -234t54.5 -300t-54.5 -300t-147 -234t-218.5 -149t-266 -54t-266 54t-218.5 149t-147 234t-54.5 300zM307 717q0 -242 133 -387.5t338 -145.5t338 145.5t133 387.5t-133 387t-338 145t-338 -145 t-133 -387zM461 1608q0 113 59.5 174t155.5 61q43 0 84 -23t76.5 -46t64.5 -23q32 0 52 23.5t20 68.5h153q0 -113 -59.5 -174t-155.5 -61q-43 0 -84 23t-76.5 46t-64.5 23q-32 0 -52 -23.5t-20 -68.5h-153z" />
<glyph unicode="&#xd6;" horiz-adv-x="1556" d="M92 717q0 161 54.5 300t147 234t218.5 149t266 54t266 -54t218.5 -149t147 -234t54.5 -300t-54.5 -300t-147 -234t-218.5 -149t-266 -54t-266 54t-218.5 149t-147 234t-54.5 300zM307 717q0 -242 133 -387.5t338 -145.5t338 145.5t133 387.5t-133 387t-338 145t-338 -145 t-133 -387zM492 1628v205h204v-205h-204zM860 1628v205h205v-205h-205z" />
<glyph unicode="&#xd7;" horiz-adv-x="1105" d="M143 328l277 276l-277 277l133 133l277 -277l276 277l134 -133l-277 -277l277 -276l-134 -133l-276 276l-277 -276z" />
<glyph unicode="&#xd8;" horiz-adv-x="1556" d="M92 717q0 161 54.5 300t147 234t218.5 149t266 54q130 0 246 -45l51 96h225l-102 -196q126 -101 196 -252.5t70 -339.5q0 -161 -54.5 -300t-147 -234t-218.5 -149t-266 -54q-142 0 -256 49l-51 -101h-225l104 201q-122 101 -190 251t-68 337zM307 717q0 -251 144 -398 l477 906q-70 24 -150 24q-205 0 -338 -145t-133 -387zM618 211q70 -27 160 -27q205 0 338 145.5t133 387.5q0 258 -151 403z" />
<glyph unicode="&#xd9;" horiz-adv-x="1433" d="M143 573v861h215v-861q0 -175 101.5 -282t257.5 -107t257 107t101 282v861h215v-861q0 -268 -159 -430.5t-414 -162.5t-414.5 162.5t-159.5 430.5zM379 1874h225l205 -297h-184z" />
<glyph unicode="&#xda;" horiz-adv-x="1433" d="M143 573v861h215v-861q0 -175 101.5 -282t257.5 -107t257 107t101 282v861h215v-861q0 -268 -159 -430.5t-414 -162.5t-414.5 162.5t-159.5 430.5zM625 1577l204 297h226l-246 -297h-184z" />
<glyph unicode="&#xdb;" horiz-adv-x="1433" d="M143 573v861h215v-861q0 -175 101.5 -282t257.5 -107t257 107t101 282v861h215v-861q0 -268 -159 -430.5t-414 -162.5t-414.5 162.5t-159.5 430.5zM379 1577l246 297h184l246 -297h-195l-143 174l-144 -174h-194z" />
<glyph unicode="&#xdc;" horiz-adv-x="1433" d="M143 573v861h215v-861q0 -175 101.5 -282t257.5 -107t257 107t101 282v861h215v-861q0 -268 -159 -430.5t-414 -162.5t-414.5 162.5t-159.5 430.5zM430 1628v205h205v-205h-205zM799 1628v205h205v-205h-205z" />
<glyph unicode="&#xdd;" horiz-adv-x="1239" d="M-10 1434h237l377 -666h41l367 666h237l-522 -922v-512h-215v512zM532 1577l205 297h226l-246 -297h-185z" />
<glyph unicode="&#xde;" horiz-adv-x="1433" d="M154 0v1434h215v-287h542q191 0 316 -122.5t125 -307.5t-125 -307.5t-316 -122.5h-542v-287h-215zM369 492h532q98 0 167 65.5t69 159.5q0 91 -69 158t-167 67h-532v-450z" />
<glyph unicode="&#xdf;" horiz-adv-x="1157" d="M133 0v1034q0 186 123 303t328 117q204 0 327 -115t123 -295q0 -145 -94 -239q-45 -45 -92 -64v-10q63 -24 113 -69q114 -102 114 -263q0 -181 -122 -290t-339 -109h-82v184h62q126 0 201 65t75 161t-74.5 160.5t-201.5 64.5h-72v194h72q107 0 171 60.5t64 154.5 q0 92 -70.5 159t-174.5 67q-108 0 -177 -67.5t-69 -168.5v-1034h-205z" />
<glyph unicode="&#xe0;" horiz-adv-x="1095" d="M92 297q0 159 105.5 248.5t314.5 89.5h256v20q0 100 -57.5 157.5t-157.5 57.5q-98 0 -152 -44t-63 -99h-205q8 135 121.5 226t298.5 91q199 0 309.5 -104.5t110.5 -284.5v-655h-174l-21 113h-10q-30 -41 -74 -68q-97 -65 -233 -65q-167 0 -268 88t-101 229zM215 1485h225 l205 -297h-184zM297 307q0 -71 47 -112t137 -41q139 0 213 72.5t74 203.5v41h-246q-112 0 -168.5 -45.5t-56.5 -118.5z" />
<glyph unicode="&#xe1;" horiz-adv-x="1095" d="M92 297q0 159 105.5 248.5t314.5 89.5h256v20q0 100 -57.5 157.5t-157.5 57.5q-98 0 -152 -44t-63 -99h-205q8 135 121.5 226t298.5 91q199 0 309.5 -104.5t110.5 -284.5v-655h-174l-21 113h-10q-30 -41 -74 -68q-97 -65 -233 -65q-167 0 -268 88t-101 229zM297 307 q0 -71 47 -112t137 -41q139 0 213 72.5t74 203.5v41h-246q-112 0 -168.5 -45.5t-56.5 -118.5zM461 1188l205 297h225l-246 -297h-184z" />
<glyph unicode="&#xe2;" horiz-adv-x="1095" d="M92 297q0 159 105.5 248.5t314.5 89.5h256v20q0 100 -57.5 157.5t-157.5 57.5q-98 0 -152 -44t-63 -99h-205q8 135 121.5 226t298.5 91q199 0 309.5 -104.5t110.5 -284.5v-655h-174l-21 113h-10q-30 -41 -74 -68q-97 -65 -233 -65q-167 0 -268 88t-101 229zM215 1188 l246 297h184l246 -297h-195l-143 174l-143 -174h-195zM297 307q0 -71 47 -112t137 -41q139 0 213 72.5t74 203.5v41h-246q-112 0 -168.5 -45.5t-56.5 -118.5z" />
<glyph unicode="&#xe3;" horiz-adv-x="1095" d="M92 297q0 159 105.5 248.5t314.5 89.5h256v20q0 100 -57.5 157.5t-157.5 57.5q-98 0 -152 -44t-63 -99h-205q8 135 121.5 226t298.5 91q199 0 309.5 -104.5t110.5 -284.5v-655h-174l-21 113h-10q-30 -41 -74 -68q-97 -65 -233 -65q-167 0 -268 88t-101 229zM225 1219 q0 113 59.5 174t155.5 61q43 0 84.5 -23t77 -46t64.5 -23q32 0 51.5 23t19.5 69h154q0 -113 -59.5 -174t-155.5 -61q-43 0 -84 23t-76.5 46t-64.5 23q-32 0 -52 -23.5t-20 -68.5h-154zM297 307q0 -71 47 -112t137 -41q139 0 213 72.5t74 203.5v41h-246q-112 0 -168.5 -45.5 t-56.5 -118.5z" />
<glyph unicode="&#xe4;" horiz-adv-x="1095" d="M92 297q0 159 105.5 248.5t314.5 89.5h256v20q0 100 -57.5 157.5t-157.5 57.5q-98 0 -152 -44t-63 -99h-205q8 135 121.5 226t298.5 91q199 0 309.5 -104.5t110.5 -284.5v-655h-174l-21 113h-10q-30 -41 -74 -68q-97 -65 -233 -65q-167 0 -268 88t-101 229zM266 1229v205 h205v-205h-205zM297 307q0 -71 47 -112t137 -41q139 0 213 72.5t74 203.5v41h-246q-112 0 -168.5 -45.5t-56.5 -118.5zM635 1229v205h205v-205h-205z" />
<glyph unicode="&#xe5;" horiz-adv-x="1095" d="M92 297q0 159 105.5 248.5t314.5 89.5h256v20q0 100 -57.5 157.5t-157.5 57.5q-98 0 -152 -44t-63 -99h-205q8 135 121.5 226t298.5 91q199 0 309.5 -104.5t110.5 -284.5v-655h-174l-21 113h-10q-30 -41 -74 -68q-97 -65 -233 -65q-167 0 -268 88t-101 229zM297 307 q0 -71 47 -112t137 -41q139 0 213 72.5t74 203.5v41h-246q-112 0 -168.5 -45.5t-56.5 -118.5zM358 1352q0 86 54.5 140t140.5 54t140.5 -54t54.5 -140t-54.5 -140.5t-140.5 -54.5t-140.5 54.5t-54.5 140.5zM471 1352q0 -37 24.5 -59.5t57.5 -22.5t57.5 22.5t24.5 59.5 t-24.5 59.5t-57.5 22.5t-57.5 -22.5t-24.5 -59.5z" />
<glyph unicode="&#xe6;" horiz-adv-x="1843" d="M92 297q0 144 110.5 230.5t319.5 86.5h246v41q0 100 -57.5 157.5t-157.5 57.5q-98 0 -152 -44t-63 -99h-205q8 135 121.5 226t298.5 91q64 0 119 -12.5t92.5 -32t68 -46t48 -51.5t30.5 -52q20 34 50.5 65.5t75 62t108 48.5t135.5 18q211 0 346 -135t135 -356 q0 -20 -6 -74l-4 -28h-768q12 -129 95.5 -213t201.5 -84q90 0 151.5 46t84.5 97h215q-16 -44 -39 -84.5t-62 -84t-86.5 -75.5t-116 -52.5t-147.5 -20.5q-171 0 -303 102q-56 45 -96 102q-35 -54 -95 -102q-132 -102 -315 -102q-164 0 -271.5 92.5t-107.5 224.5zM297 297 q0 -63 52.5 -103t142.5 -40q136 0 206 74.5t70 201.5v21h-236q-108 0 -171.5 -42t-63.5 -112zM983 604h573q-17 132 -88.5 204.5t-187.5 72.5q-120 0 -200 -72.5t-97 -204.5z" />
<glyph unicode="&#xe7;" horiz-adv-x="1136" d="M82 512q0 236 144 384t368 148q88 0 163.5 -25t126 -63.5t89.5 -89.5t60 -97.5t32 -92.5h-205q-29 80 -93.5 132t-172.5 52q-133 0 -220 -95.5t-87 -252.5t87 -252.5t220 -95.5q111 0 178 59.5t88 134.5h205q-11 -57 -39 -114t-74.5 -112.5t-121.5 -95.5t-168 -52 l-37 -86q55 -9 99 -51t44 -113q0 -81 -54.5 -127.5t-160.5 -46.5h-113v133h82q45 0 68.5 18t23.5 43q0 62 -92 62h-51v82l39 88q-193 28 -310.5 170t-117.5 356z" />
<glyph unicode="&#xe8;" horiz-adv-x="1167" d="M82 512q0 236 144 384t368 148q208 0 349.5 -143.5t141.5 -357.5q0 -20 -6 -74l-4 -29h-788q17 -131 100.5 -208.5t206.5 -77.5q87 0 153 42t93 101h215q-16 -43 -41 -84.5t-66 -84.5t-90.5 -75t-118 -52.5t-145.5 -20.5q-224 0 -368 148t-144 384zM246 1485h225 l205 -297h-184zM287 594h604q-18 125 -97 200.5t-200 75.5q-126 0 -204.5 -74t-102.5 -202z" />
<glyph unicode="&#xe9;" horiz-adv-x="1167" d="M82 512q0 236 144 384t368 148q208 0 349.5 -143.5t141.5 -357.5q0 -20 -6 -74l-4 -29h-788q17 -131 100.5 -208.5t206.5 -77.5q87 0 153 42t93 101h215q-16 -43 -41 -84.5t-66 -84.5t-90.5 -75t-118 -52.5t-145.5 -20.5q-224 0 -368 148t-144 384zM287 594h604 q-18 125 -97 200.5t-200 75.5q-126 0 -204.5 -74t-102.5 -202zM492 1188l204 297h226l-246 -297h-184z" />
<glyph unicode="&#xea;" horiz-adv-x="1167" d="M82 512q0 236 144 384t368 148q208 0 349.5 -143.5t141.5 -357.5q0 -20 -6 -74l-4 -29h-788q17 -131 100.5 -208.5t206.5 -77.5q87 0 153 42t93 101h215q-16 -43 -41 -84.5t-66 -84.5t-90.5 -75t-118 -52.5t-145.5 -20.5q-224 0 -368 148t-144 384zM246 1188l246 297h184 l246 -297h-195l-143 174l-144 -174h-194zM287 594h604q-18 125 -97 200.5t-200 75.5q-126 0 -204.5 -74t-102.5 -202z" />
<glyph unicode="&#xeb;" horiz-adv-x="1167" d="M82 512q0 236 144 384t368 148q208 0 349.5 -143.5t141.5 -357.5q0 -20 -6 -74l-4 -29h-788q17 -131 100.5 -208.5t206.5 -77.5q87 0 153 42t93 101h215q-16 -43 -41 -84.5t-66 -84.5t-90.5 -75t-118 -52.5t-145.5 -20.5q-224 0 -368 148t-144 384zM287 594h604 q-18 125 -97 200.5t-200 75.5q-126 0 -204.5 -74t-102.5 -202zM297 1229v205h205v-205h-205zM666 1229v205h204v-205h-204z" />
<glyph unicode="&#xec;" horiz-adv-x="471" d="M-102 1485h225l205 -297h-185zM133 0v1024h205v-1024h-205z" />
<glyph unicode="&#xed;" horiz-adv-x="471" d="M133 0v1024h205v-1024h-205zM143 1188l205 297h225l-245 -297h-185z" />
<glyph unicode="&#xee;" horiz-adv-x="471" d="M-102 1188l245 297h185l245 -297h-194l-143 174l-144 -174h-194zM133 0v1024h205v-1024h-205z" />
<glyph unicode="&#xef;" horiz-adv-x="471" d="M-51 1229v205h205v-205h-205zM133 0v1024h205v-1024h-205zM317 1229v205h205v-205h-205z" />
<glyph unicode="&#xf0;" horiz-adv-x="1157" d="M82 461q0 215 133 348t348 133q142 0 256 -92h10q-29 78 -87.5 158.5t-116.5 138.5l-256 -133l-72 123l205 112l-70 54q-80 61 -145 100l153 82q67 -39 142 -96l73 -58l236 123l82 -133l-205 -102q297 -312 297 -697q0 -250 -136.5 -396t-355.5 -146q-215 0 -353 135.5 t-138 345.5zM287 461q0 -130 81 -213.5t205 -83.5t205.5 83.5t81.5 213.5t-81.5 213.5t-205.5 83.5t-205 -83.5t-81 -213.5z" />
<glyph unicode="&#xf1;" horiz-adv-x="1177" d="M133 0v1024h184l21 -102h10q36 36 76 61q96 61 221 61q186 0 298 -115.5t112 -314.5v-614h-205v614q0 101 -71 173.5t-175 72.5q-114 0 -190 -72.5t-76 -173.5v-614h-205zM287 1219q0 113 59.5 174t155.5 61q43 0 84 -23t76.5 -46t64.5 -23q32 0 52 23.5t20 68.5h153 q0 -113 -59.5 -174t-155.5 -61q-43 0 -84 23t-76.5 46t-64.5 23q-32 0 -52 -23.5t-20 -68.5h-153z" />
<glyph unicode="&#xf2;" d="M82 512q0 236 144 384t368 148t368 -148t144 -384t-144 -384t-368 -148t-368 148t-144 384zM256 1485h225l205 -297h-184zM287 512q0 -157 87 -252.5t220 -95.5t220 95.5t87 252.5t-87 252.5t-220 95.5t-220 -95.5t-87 -252.5z" />
<glyph unicode="&#xf3;" d="M82 512q0 236 144 384t368 148t368 -148t144 -384t-144 -384t-368 -148t-368 148t-144 384zM287 512q0 -157 87 -252.5t220 -95.5t220 95.5t87 252.5t-87 252.5t-220 95.5t-220 -95.5t-87 -252.5zM502 1188l205 297h225l-246 -297h-184z" />
<glyph unicode="&#xf4;" d="M82 512q0 236 144 384t368 148t368 -148t144 -384t-144 -384t-368 -148t-368 148t-144 384zM256 1188l246 297h184l246 -297h-195l-143 174l-143 -174h-195zM287 512q0 -157 87 -252.5t220 -95.5t220 95.5t87 252.5t-87 252.5t-220 95.5t-220 -95.5t-87 -252.5z" />
<glyph unicode="&#xf5;" d="M82 512q0 236 144 384t368 148t368 -148t144 -384t-144 -384t-368 -148t-368 148t-144 384zM266 1219q0 113 59.5 174t155.5 61q43 0 84.5 -23t77 -46t64.5 -23q32 0 51.5 23t19.5 69h154q0 -113 -59.5 -174t-155.5 -61q-43 0 -84 23t-76.5 46t-64.5 23q-32 0 -52 -23.5 t-20 -68.5h-154zM287 512q0 -157 87 -252.5t220 -95.5t220 95.5t87 252.5t-87 252.5t-220 95.5t-220 -95.5t-87 -252.5z" />
<glyph unicode="&#xf6;" d="M82 512q0 236 144 384t368 148t368 -148t144 -384t-144 -384t-368 -148t-368 148t-144 384zM287 512q0 -157 87 -252.5t220 -95.5t220 95.5t87 252.5t-87 252.5t-220 95.5t-220 -95.5t-87 -252.5zM307 1229v205h205v-205h-205zM676 1229v205h205v-205h-205z" />
<glyph unicode="&#xf7;" horiz-adv-x="1075" d="M102 502v184h871v-184h-871zM420 266q0 53 31.5 83t80.5 30t81 -30.5t32 -82.5t-32 -82t-81 -30t-80.5 30t-31.5 82zM420 922q0 52 31.5 82t80.5 30t81 -30t32 -82t-32 -82.5t-81 -30.5t-80.5 30t-31.5 83z" />
<glyph unicode="&#xf8;" d="M82 512q0 236 144 384t368 148q83 0 172 -26l43 78h195l-86 -160q89 -70 138.5 -179.5t49.5 -244.5q0 -236 -144 -384t-368 -148q-93 0 -182 28l-43 -80h-195l88 164q-180 150 -180 420zM287 512q0 -149 73 -240l314 578q-45 10 -80 10q-133 0 -220 -95.5t-87 -252.5z M504 176q44 -12 90 -12q133 0 220 95.5t87 252.5q0 151 -82 246z" />
<glyph unicode="&#xf9;" d="M133 410v614h205v-614q0 -101 71 -173.5t175 -72.5q114 0 190 72.5t76 173.5v614h205v-1024h-185l-20 102h-10q-36 -36 -76 -61q-96 -61 -221 -61q-186 0 -298 115.5t-112 314.5zM256 1485h225l205 -297h-184z" />
<glyph unicode="&#xfa;" d="M133 410v614h205v-614q0 -101 71 -173.5t175 -72.5q114 0 190 72.5t76 173.5v614h205v-1024h-185l-20 102h-10q-36 -36 -76 -61q-96 -61 -221 -61q-186 0 -298 115.5t-112 314.5zM502 1188l205 297h225l-246 -297h-184z" />
<glyph unicode="&#xfb;" d="M133 410v614h205v-614q0 -101 71 -173.5t175 -72.5q114 0 190 72.5t76 173.5v614h205v-1024h-185l-20 102h-10q-36 -36 -76 -61q-96 -61 -221 -61q-186 0 -298 115.5t-112 314.5zM256 1188l246 297h184l246 -297h-195l-143 174l-143 -174h-195z" />
<glyph unicode="&#xfc;" d="M133 410v614h205v-614q0 -101 71 -173.5t175 -72.5q114 0 190 72.5t76 173.5v614h205v-1024h-185l-20 102h-10q-36 -36 -76 -61q-96 -61 -221 -61q-186 0 -298 115.5t-112 314.5zM307 1229v205h205v-205h-205zM676 1229v205h205v-205h-205z" />
<glyph unicode="&#xfd;" horiz-adv-x="1054" d="M10 1024h215l297 -778h41l266 778h215l-450 -1260q-33 -90 -89.5 -132t-166.5 -42h-215v185h205q28 0 45.5 19.5t23.5 41.5l33 92zM451 1188l204 297h226l-246 -297h-184z" />
<glyph unicode="&#xfe;" horiz-adv-x="1228" d="M143 -410v1844h205v-533h10q20 23 28 31.5t41 34.5t62 39t80 25.5t107 12.5q205 0 338 -145t133 -387t-133 -387t-338 -145q-210 0 -318 143h-10v-533h-205zM348 512q0 -156 85.5 -252t211.5 -96t211.5 96t85.5 252t-85.5 252t-211.5 96t-211.5 -96t-85.5 -252z" />
<glyph unicode="&#xff;" horiz-adv-x="1054" d="M10 1024h215l297 -778h41l266 778h215l-450 -1260q-33 -90 -89.5 -132t-166.5 -42h-215v185h205q28 0 45.5 19.5t23.5 41.5l33 92zM256 1229v205h205v-205h-205zM625 1229v205h204v-205h-204z" />
<glyph unicode="&#x152;" horiz-adv-x="2242" d="M92 717q0 162 52.5 300.5t142 233.5t212 149t259.5 54q282 0 430 -215v195h942v-205h-727v-410h686v-205h-686v-409h727v-205h-942v195q-146 -215 -430 -215q-137 0 -259.5 54t-212 149t-142 233.5t-52.5 300.5zM307 717q0 -120 36 -221t97.5 -169t143.5 -105.5 t174 -37.5q185 0 307.5 143.5t122.5 389.5v24q-5 157 -64.5 273.5t-154 175.5t-211.5 59q-190 0 -320.5 -146.5t-130.5 -385.5z" />
<glyph unicode="&#x153;" horiz-adv-x="1935" d="M82 512q0 117 38 216.5t104 168.5t156 108t193 39q140 0 244.5 -64.5t145.5 -150.5q40 84 153 149.5t256 65.5q214 0 347.5 -137.5t133.5 -353.5q0 -11 -6 -80l-4 -33h-768q17 -125 99.5 -205.5t197.5 -80.5q90 0 151.5 46t84.5 97h215q-16 -44 -39 -84.5t-62 -84 t-86.5 -75.5t-116 -52.5t-147.5 -20.5q-141 0 -254.5 63t-154.5 141q-42 -78 -148.5 -141t-241.5 -63q-103 0 -193 39t-156 108t-104 168.5t-38 216.5zM287 512q0 -155 83.5 -251.5t202.5 -96.5t203 96.5t84 251.5t-84 251.5t-203 96.5t-202.5 -96.5t-83.5 -251.5zM1075 594 h574q-18 133 -90 210t-187 77q-122 0 -201 -77.5t-96 -209.5z" />
<glyph unicode="&#x178;" horiz-adv-x="1239" d="M-10 1434h237l377 -666h41l367 666h237l-522 -922v-512h-215v512zM338 1628v205h205v-205h-205zM707 1628v205h204v-205h-204z" />
<glyph unicode="&#x2c6;" horiz-adv-x="798" d="M61 1208l246 297h185l245 -297h-194l-144 174l-143 -174h-195z" />
<glyph unicode="&#x2dc;" horiz-adv-x="788" d="M61 1219q0 113 59.5 174t155.5 61q43 0 84.5 -23t77 -46t64.5 -23q32 0 51.5 23t19.5 69h154q0 -113 -59.5 -174t-155.5 -61q-43 0 -84 23t-76.5 46t-64.5 23q-32 0 -52 -23.5t-20 -68.5h-154z" />
<glyph unicode="&#x2000;" horiz-adv-x="967" />
<glyph unicode="&#x2001;" horiz-adv-x="1935" />
<glyph unicode="&#x2002;" horiz-adv-x="967" />
<glyph unicode="&#x2003;" horiz-adv-x="1935" />
<glyph unicode="&#x2004;" horiz-adv-x="645" />
<glyph unicode="&#x2005;" horiz-adv-x="483" />
<glyph unicode="&#x2006;" horiz-adv-x="322" />
<glyph unicode="&#x2007;" horiz-adv-x="322" />
<glyph unicode="&#x2008;" horiz-adv-x="241" />
<glyph unicode="&#x2009;" horiz-adv-x="387" />
<glyph unicode="&#x200a;" horiz-adv-x="107" />
<glyph unicode="&#x2010;" horiz-adv-x="860" d="M92 492v184h676v-184h-676z" />
<glyph unicode="&#x2011;" horiz-adv-x="860" d="M92 492v184h676v-184h-676z" />
<glyph unicode="&#x2012;" horiz-adv-x="860" d="M92 492v184h676v-184h-676z" />
<glyph unicode="&#x2013;" horiz-adv-x="1136" d="M72 492v184h993v-184h-993z" />
<glyph unicode="&#x2014;" horiz-adv-x="1525" d="M72 492v184h1382v-184h-1382z" />
<glyph unicode="&#x2018;" horiz-adv-x="460" d="M92 1024l92 410h174l-41 -410h-225z" />
<glyph unicode="&#x2019;" horiz-adv-x="460" d="M102 1024l41 410h226l-93 -410h-174z" />
<glyph unicode="&#x201a;" horiz-adv-x="481" d="M92 -174l41 410h236l-113 -410h-164z" />
<glyph unicode="&#x201c;" horiz-adv-x="798" d="M92 1024l92 410h174l-41 -410h-225zM430 1024l92 410h174l-41 -410h-225z" />
<glyph unicode="&#x201d;" horiz-adv-x="798" d="M102 1024l41 410h226l-93 -410h-174zM440 1024l41 410h226l-93 -410h-174z" />
<glyph unicode="&#x201e;" horiz-adv-x="819" d="M92 -174l41 410h236l-113 -410h-164zM430 -174l41 410h236l-113 -410h-164z" />
<glyph unicode="&#x2022;" horiz-adv-x="942" d="M246 553q0 91 66 158t159 67q91 0 158 -67t67 -158q0 -93 -67 -159t-158 -66q-94 0 -159.5 65.5t-65.5 159.5z" />
<glyph unicode="&#x2026;" horiz-adv-x="1464" d="M123 0v236h235v-236h-235zM614 0v236h236v-236h-236zM1106 0v236h235v-236h-235z" />
<glyph unicode="&#x202f;" horiz-adv-x="387" />
<glyph unicode="&#x2039;" horiz-adv-x="665" d="M82 512l287 410h215l-287 -410l287 -410h-215z" />
<glyph unicode="&#x203a;" horiz-adv-x="665" d="M82 102l287 410l-287 410h215l287 -410l-287 -410h-215z" />
<glyph unicode="&#x205f;" horiz-adv-x="483" />
<glyph unicode="&#x20ac;" horiz-adv-x="1454" d="M51 481v154h174v164h-174v153h195q12 59 44 123.5t91 133t134.5 122.5t184.5 88.5t232 34.5q268 0 430 -92v-205q-44 21 -56.5 27t-62.5 25t-86 27t-95 16t-120 8q-95 0 -176.5 -27.5t-136.5 -73.5t-91.5 -98t-56.5 -109h604v-153h-634v-164h634v-154h-604 q20 -57 56.5 -109t91.5 -97.5t136.5 -73t176.5 -27.5q230 0 420 102v-204q-162 -92 -430 -92q-123 0 -232 34.5t-184.5 88t-134.5 122t-91 133t-44 123.5h-195z" />
<glyph unicode="&#x2122;" horiz-adv-x="1556" d="M41 1290v144h532v-144h-194v-471h-143v471h-195zM676 819v615h235l144 -430h20l144 430h235v-615h-143v430h-21l-143 -430h-164l-143 430h-21v-430h-143z" />
<glyph unicode="&#x25fc;" horiz-adv-x="1024" d="M0 0v1024h1024v-1024h-1024z" />
</font>
</defs>
</svg>
