<?xml version="1.0" standalone="no"?>
<!DOCTYPE svg PUBLIC "-//W3C//DTD SVG 1.1//EN" "http://www.w3.org/Graphics/SVG/1.1/DTD/svg11.dtd" >
<svg xmlns="http://www.w3.org/2000/svg" xmlns:xlink="http://www.w3.org/1999/xlink" version="1.1">
<metadata></metadata>
<defs>
<font id="tt_hovesbold" horiz-adv-x="1228" >
<font-face units-per-em="2048" ascent="1434" descent="-614" />
<missing-glyph horiz-adv-x="552" />
<glyph unicode="&#xfb01;" horiz-adv-x="1290" d="M61 758v286h164v144q0 140 75 213.5t222 73.5h195v-256h-113q-72 0 -72 -72v-103h635v-1044h-307v758h-328v-758h-307v758h-164zM860 1208v267h307v-267h-307z" />
<glyph unicode="&#xfb02;" horiz-adv-x="1300" d="M61 758v286h164v144q0 140 75 213.5t222 73.5h645v-1475h-307v1219h-256q-72 0 -72 -72v-103h195v-286h-195v-758h-307v758h-164z" />
<glyph unicode="&#xfb03;" horiz-adv-x="1925" d="M61 758v286h164v144q0 140 75 213.5t222 73.5h195v-256h-113q-72 0 -72 -72v-103h328v144q0 140 75 213.5t222 73.5h195v-256h-113q-72 0 -72 -72v-103h635v-1044h-307v758h-328v-758h-307v758h-328v-758h-307v758h-164zM1495 1208v267h307v-267h-307z" />
<glyph unicode="&#xfb04;" horiz-adv-x="1935" d="M61 758v286h164v144q0 140 75 213.5t222 73.5h195v-256h-113q-72 0 -72 -72v-103h328v144q0 140 75 213.5t222 73.5h645v-1475h-307v1219h-256q-72 0 -72 -72v-103h195v-286h-195v-758h-307v758h-328v-758h-307v758h-164z" />
<glyph horiz-adv-x="0" />
<glyph horiz-adv-x="682" />
<glyph horiz-adv-x="0" />
<glyph horiz-adv-x="0" />
<glyph unicode="&#xd;" horiz-adv-x="0" />
<glyph unicode=" "  horiz-adv-x="552" />
<glyph unicode="&#x09;" horiz-adv-x="552" />
<glyph unicode="&#xa0;" horiz-adv-x="552" />
<glyph unicode="!" horiz-adv-x="655" d="M164 0v338h328v-338h-328zM164 901v533h328v-533l-41 -430h-246z" />
<glyph unicode="&#x22;" horiz-adv-x="931" d="M123 942v492h276v-492h-276zM532 942v492h277v-492h-277z" />
<glyph unicode="#" horiz-adv-x="1505" d="M20 328l62 276h256l51 225h-256l62 277h245l72 328h287l-72 -328h215l72 328h286l-71 -328h256l-62 -277h-256l-51 -225h256l-61 -276h-246l-72 -328h-286l71 328h-215l-71 -328h-287l71 328h-256zM625 604h204l52 225h-205z" />
<glyph unicode="$" horiz-adv-x="1310" d="M61 471h328q0 -90 70 -147.5t196 -57.5q123 0 184.5 43.5t61.5 110.5q0 57 -46.5 94t-158.5 59l-225 41q-193 35 -286 132.5t-93 267.5q0 168 106 279.5t294 150.5v215h307v-215q197 -39 308.5 -162t111.5 -319h-328q0 88 -69 146t-187 58q-104 0 -159.5 -44t-55.5 -109 q0 -55 38 -85t136 -48l225 -41q216 -38 313 -137t97 -283q0 -170 -114.5 -284.5t-315.5 -145.5v-215h-307v215q-188 30 -309.5 162.5t-121.5 318.5z" />
<glyph unicode="%" horiz-adv-x="1720" d="M72 1116q0 140 99 239t239 99t239 -99t99 -239t-99 -239t-239 -99t-239 99t-99 239zM266 0l891 1434h297l-891 -1434h-297zM297 1116q0 -53 32.5 -88t80.5 -35t80 34.5t32 88.5t-32 88.5t-80 34.5t-80.5 -35t-32.5 -88zM973 317q0 139 99.5 238.5t238.5 99.5t238.5 -99.5 t99.5 -238.5t-99 -238t-239 -99t-239 99t-99 238zM1198 317q0 -53 32.5 -87.5t80.5 -34.5t80 34.5t32 87.5q0 54 -32 88.5t-80 34.5t-80.5 -35t-32.5 -88z" />
<glyph unicode="&#x26;" horiz-adv-x="1341" d="M72 369q0 63 11.5 111.5t37.5 87.5t53 66t72 62l82 62l-72 82q-36 41 -55 65.5t-38.5 77t-19.5 113.5q0 150 116.5 254t303.5 104q188 0 304 -106t116 -263q0 -192 -154 -297l-112 -81l215 -226q23 41 31 60q30 75 30 135h277q0 -145 -72 -293q-38 -68 -72 -107l267 -276 h-359l-102 113q-50 -41 -109 -68q-134 -65 -270 -65q-227 0 -354 110t-127 279zM369 379q0 -64 45 -103.5t129 -39.5q89 0 162 30q32 13 53 31l-246 266l-51 -31q-44 -27 -68 -61.5t-24 -91.5zM430 1065q0 -24 10.5 -46t20.5 -34t31 -33l51 -51l71 41q43 26 62.5 52.5 t19.5 70.5q0 55 -36 89t-97 34t-97 -34t-36 -89z" />
<glyph unicode="'" horiz-adv-x="522" d="M123 942v492h276v-492h-276z" />
<glyph unicode="(" horiz-adv-x="788" d="M143 543q0 362 144 694q66 148 143 258h318q-90 -125 -150 -258q-147 -330 -147 -694q0 -365 147 -695q60 -133 150 -258h-318q-77 110 -143 258q-144 332 -144 695z" />
<glyph unicode=")" horiz-adv-x="788" d="M41 -410q83 114 147 258q150 336 150 695q0 358 -150 694q-64 144 -147 258h317q80 -114 144 -258q143 -330 143 -694q0 -365 -143 -695q-64 -144 -144 -258h-317z" />
<glyph unicode="*" horiz-adv-x="1003" d="M72 1024l61 215l277 -102l-21 297h225l-20 -297l276 102l62 -215l-277 -72l185 -215l-174 -143l-164 242l-164 -242l-174 143l184 215z" />
<glyph unicode="+" horiz-adv-x="1146" d="M102 451v286h328v348h287v-348h327v-286h-327v-349h-287v349h-328z" />
<glyph unicode="," horiz-adv-x="573" d="M82 -184l51 522h338l-143 -522h-246z" />
<glyph unicode="-" horiz-adv-x="911" d="M102 440v287h707v-287h-707z" />
<glyph unicode="." horiz-adv-x="583" d="M123 0v338h338v-338h-338z" />
<glyph unicode="/" horiz-adv-x="870" d="M0 -410l563 1905h307l-563 -1905h-307z" />
<glyph unicode="0" horiz-adv-x="1392" d="M92 717q0 172 47 312.5t128.5 232.5t191.5 142t237 50t237 -50t191.5 -142t128.5 -232.5t47 -312.5t-47 -312.5t-128.5 -232.5t-191.5 -142t-237 -50t-237 50t-191.5 142t-128.5 232.5t-47 312.5zM420 717q0 -204 80 -312t196 -108q115 0 196 108.5t81 311.5t-81 311.5 t-196 108.5q-116 0 -196 -108t-80 -312z" />
<glyph unicode="1" horiz-adv-x="819" d="M61 973v307h215q72 0 72 72v82h328v-1434h-328v973h-287z" />
<glyph unicode="2" horiz-adv-x="1187" d="M82 942q0 229 141.5 370.5t370.5 141.5q227 0 364.5 -134.5t137.5 -346.5q0 -71 -17 -129.5t-54.5 -110t-75 -89.5t-99.5 -91l-256 -225v-11h512v-317h-1004v297l584 522q25 24 38 40t23.5 45.5t10.5 68.5q0 63 -49 108t-125 45q-79 0 -126.5 -49.5t-47.5 -134.5h-328z " />
<glyph unicode="3" horiz-adv-x="1198" d="M61 451h328q0 -71 52.5 -117.5t142.5 -46.5q89 0 141.5 44.5t52.5 108.5q0 71 -52 117.5t-142 46.5h-103v266h103q83 0 128.5 40t45.5 104q0 57 -45.5 95t-128.5 38q-84 0 -129 -39.5t-45 -103.5h-328q0 188 144 319t368 131q108 0 201.5 -34t156 -91.5t98 -133.5 t35.5 -159q0 -141 -98 -235q-48 -45 -96 -64v-10q59 -24 106 -68q109 -97 109 -249q0 -184 -140 -307t-372 -123q-242 0 -387.5 133t-145.5 338z" />
<glyph unicode="4" horiz-adv-x="1198" d="M31 266v287l481 881h492v-871h153v-297h-153v-266h-328v266h-645zM379 563h297v481h-41l-256 -471v-10z" />
<glyph unicode="5" horiz-adv-x="1208" d="M92 420h328q8 -38 35 -68q61 -65 159 -65q85 0 140 52.5t55 131.5t-55 131.5t-140 52.5q-89 0 -137 -41q-20 -17 -37 -41h-327l82 861h870v-297h-594l-20 -226h10q18 12 45 21q62 20 139 20q215 0 353.5 -135.5t138.5 -345.5q0 -217 -143.5 -354t-379.5 -137 q-304 0 -446 219q-61 98 -76 221z" />
<glyph unicode="6" horiz-adv-x="1208" d="M72 481q0 109 25.5 182t66.5 136l409 635h369l-307 -461q214 0 358 -142t144 -350q0 -137 -68.5 -251.5t-191.5 -182t-273 -67.5q-113 0 -212.5 39.5t-169 107t-110 160t-40.5 194.5zM399 481q0 -87 56.5 -140.5t148.5 -53.5t148.5 53.5t56.5 140.5t-56.5 141t-148.5 54 t-148.5 -54t-56.5 -141z" />
<glyph unicode="7" horiz-adv-x="1105" d="M61 1116v318h983v-287l-491 -1147h-369l482 1116h-605z" />
<glyph unicode="8" horiz-adv-x="1208" d="M82 410q0 151 102 249q49 46 103 68v10q-51 26 -92 70q-93 97 -93 237q0 108 60.5 201t177 151t264.5 58t264.5 -58t177 -151t60.5 -201q0 -141 -92 -237q-41 -44 -92 -70v-10q52 -21 102 -68q102 -98 102 -249q0 -184 -141.5 -307t-380.5 -123t-380.5 123t-141.5 307z M410 440q0 -79 51.5 -126.5t142.5 -47.5t143 47.5t52 126.5t-52 126.5t-143 47.5t-142.5 -47.5t-51.5 -126.5zM430 1024q0 -64 45 -103.5t129 -39.5t129 39.5t45 103.5t-45 103.5t-129 39.5t-129 -39.5t-45 -103.5z" />
<glyph unicode="9" horiz-adv-x="1208" d="M72 952q0 102 40.5 194.5t110 160t169 107.5t212.5 40t212.5 -40t169.5 -107.5t110.5 -160t40.5 -194.5q0 -76 -16 -142t-33 -100t-44 -75l-409 -635h-369l307 461q-214 0 -357.5 141.5t-143.5 349.5zM399 952q0 -86 56.5 -140t148.5 -54t148.5 54t56.5 140 q0 87 -56.5 141t-148.5 54t-148.5 -54t-56.5 -141z" />
<glyph unicode=":" horiz-adv-x="583" d="M123 0v338h338v-338h-338zM123 727v338h338v-338h-338z" />
<glyph unicode=";" horiz-adv-x="573" d="M82 -184l51 522h338l-143 -522h-246zM133 727v338h338v-338h-338z" />
<glyph unicode="&#x3c;" horiz-adv-x="1146" d="M113 451v307l921 358v-307l-583 -205l583 -205v-307z" />
<glyph unicode="=" horiz-adv-x="1146" d="M143 246v266h861v-266h-861zM143 676v266h861v-266h-861z" />
<glyph unicode="&#x3e;" horiz-adv-x="1146" d="M113 92v307l583 205l-583 205v307l921 -358v-307z" />
<glyph unicode="?" horiz-adv-x="1105" d="M51 1014q0 189 138 314.5t364 125.5q222 0 356.5 -116t134.5 -283q0 -235 -215 -338q-80 -39 -111.5 -78.5t-31.5 -106.5v-61h-307v61q0 95 25.5 159t68.5 102t121 77q64 32 88.5 63.5t24.5 90.5q0 56 -44.5 94.5t-119.5 38.5q-76 0 -120 -40t-44 -103h-328zM369 0v338 h327v-338h-327z" />
<glyph unicode="@" horiz-adv-x="1955" d="M102 592q0 176 66 331.5t181 268t280 177.5t354 65q200 0 368 -61.5t282 -168.5t177.5 -254t63.5 -315q0 -227 -110.5 -349t-299.5 -122q-123 0 -192 55q-37 25 -53 57h-11q-29 -33 -69 -57q-83 -55 -207 -55q-170 0 -285 118.5t-115 301.5t115 301.5t285 118.5 q92 0 162 -41q30 -18 53 -41h10l21 71h194v-481q0 -47 28 -74.5t75 -27.5q66 0 104.5 54t38.5 171q0 243 -171 398t-464 155q-136 0 -253 -45.5t-198.5 -124.5t-127.5 -189.5t-46 -236.5q0 -261 167 -421.5t448 -160.5h420v-246h-420q-193 0 -356 62t-276 171.5t-176 262.5 t-63 332zM788 584q0 -85 48 -135t127 -50t126.5 50t47.5 135t-47.5 134.5t-126.5 49.5t-127 -49.5t-48 -134.5z" />
<glyph unicode="A" horiz-adv-x="1433" d="M-10 0l491 1434h471l492 -1434h-359l-92 287h-553l-92 -287h-358zM532 573h369l-164 512h-41z" />
<glyph unicode="B" horiz-adv-x="1382" d="M143 0v1434h697q191 0 305.5 -111t114.5 -289q0 -129 -78 -231q-32 -44 -76 -76v-10q53 -37 86 -78q88 -113 88 -240q0 -178 -114.5 -288.5t-305.5 -110.5h-717zM471 287h338q61 0 102 40.5t41 102.5t-41 102.5t-102 40.5h-338v-286zM471 860h317q62 0 103 41t41 103 q0 61 -41 102t-103 41h-317v-287z" />
<glyph unicode="C" horiz-adv-x="1495" d="M82 717q0 159 54.5 297t148 234t221.5 151t272 55q348 0 535 -276q79 -117 121 -277h-328q-21 65 -64 117q-99 119 -264 119q-157 0 -262.5 -116t-105.5 -304t105.5 -304t262.5 -116q177 0 269 123q41 53 59 123h328q-35 -158 -117 -283q-37 -57 -85 -104t-113.5 -88 t-153 -64.5t-187.5 -23.5q-144 0 -272 55t-221.5 151t-148 234t-54.5 297z" />
<glyph unicode="D" horiz-adv-x="1454" d="M143 0v1434h533q191 0 350.5 -93t252.5 -258t93 -366t-93 -366t-252.5 -258t-350.5 -93h-533zM471 317h205q156 0 262 112.5t106 287.5t-106 287t-262 112h-205v-799z" />
<glyph unicode="E" d="M143 0v1434h983v-297h-655v-277h614v-287h-614v-276h655v-297h-983z" />
<glyph unicode="F" horiz-adv-x="1198" d="M143 0v1434h973v-297h-645v-287h594v-287h-594v-563h-328z" />
<glyph unicode="G" horiz-adv-x="1556" d="M82 717q0 159 54.5 297t148 234t221.5 151t272 55q326 0 527 -256q84 -116 129 -256h-338q-28 54 -70 96q-99 99 -248 99q-157 0 -262.5 -116.5t-105.5 -303.5q0 -188 105.5 -304t262.5 -116q180 0 277 117q42 51 61 118h-317v226h645v-758h-246l-20 143h-11 q-39 -45 -94 -82q-124 -81 -295 -81q-144 0 -272 55t-221.5 151t-148 234t-54.5 297z" />
<glyph unicode="H" horiz-adv-x="1495" d="M143 0v1434h328v-543h553v543h328v-1434h-328v553h-553v-553h-328z" />
<glyph unicode="I" horiz-adv-x="614" d="M143 0v1434h328v-1434h-328z" />
<glyph unicode="J" horiz-adv-x="880" d="M20 0v317h308q92 0 92 93v1024h328v-1117q0 -154 -82 -235.5t-236 -81.5h-410z" />
<glyph unicode="K" horiz-adv-x="1280" d="M143 0v1434h328v-615l420 615h399l-491 -707l532 -727h-399l-461 645v-645h-328z" />
<glyph unicode="L" horiz-adv-x="1146" d="M143 0v1434h328v-1117h645v-317h-973z" />
<glyph unicode="M" horiz-adv-x="1904" d="M143 0v1434h502l287 -891h41l287 891h501v-1434h-327v881h-41l-287 -881h-307l-287 881h-41v-881h-328z" />
<glyph unicode="N" horiz-adv-x="1505" d="M143 0v1434h400l450 -861h41v861h328v-1434h-399l-451 860h-41v-860h-328z" />
<glyph unicode="O" horiz-adv-x="1556" d="M82 717q0 159 54.5 297t148 234t221.5 151t272 55t272 -55t222 -151t148.5 -234t54.5 -297t-54.5 -297t-148.5 -234t-222 -151t-272 -55t-272 55t-221.5 151t-148 234t-54.5 297zM410 717q0 -188 105.5 -304t262.5 -116t263 116t106 304t-106 304t-263 116t-262.5 -116 t-105.5 -304z" />
<glyph unicode="P" horiz-adv-x="1351" d="M143 0v1434h666q209 0 340 -137t131 -365t-131 -365t-340 -137h-338v-430h-328zM471 748h317q71 0 117.5 50t46.5 134t-46.5 134t-117.5 50h-317v-368z" />
<glyph unicode="Q" horiz-adv-x="1556" d="M82 717q0 159 54.5 297t148 234t221.5 151t272 55t272 -55t222 -151t148.5 -234t54.5 -297q0 -227 -113 -416q-52 -82 -113 -137l256 -297h-379l-122 153q-18 -9 -60 -20q-78 -20 -166 -20q-144 0 -272 55t-221.5 151t-148 234t-54.5 297zM410 717q0 -187 104 -303.5 t254 -116.5l-143 174h379l40 -51q33 33 52 72q51 100 51 225q0 188 -106 304t-263 116t-262.5 -116t-105.5 -304z" />
<glyph unicode="R" horiz-adv-x="1392" d="M143 0v1434h676q208 0 339.5 -135.5t131.5 -356.5q0 -273 -200 -395q-92 -54 -199 -66l440 -481h-409l-410 461h-41v-461h-328zM471 758h328q71 0 117.5 50t46.5 134t-46.5 134t-117.5 50h-328v-368z" />
<glyph unicode="S" horiz-adv-x="1310" d="M61 471h328q0 -90 70 -147.5t196 -57.5q123 0 184.5 43.5t61.5 110.5q0 57 -46.5 94t-158.5 59l-225 41q-193 35 -286 132.5t-93 267.5q0 191 144.5 315.5t398.5 124.5q278 0 431 -135t153 -356h-328q0 88 -69 146t-187 58q-104 0 -159.5 -44t-55.5 -109q0 -55 38 -85 t136 -48l225 -41q216 -38 313 -137t97 -283q0 -193 -150 -316.5t-424 -123.5q-138 0 -251 38t-187.5 104t-115 155.5t-40.5 193.5z" />
<glyph unicode="T" horiz-adv-x="1208" d="M41 1116v318h1126v-318h-399v-1116h-328v1116h-399z" />
<glyph unicode="U" horiz-adv-x="1474" d="M133 594v840h328v-840q0 -129 79.5 -213t196.5 -84t197 84t80 213v840h327v-840q0 -282 -163.5 -448t-440.5 -166t-440.5 166t-163.5 448z" />
<glyph unicode="V" horiz-adv-x="1413" d="M0 1434h358l328 -1024h41l328 1024h358l-471 -1434h-471z" />
<glyph unicode="W" horiz-adv-x="2027" d="M10 1434h359l204 -871h41l226 871h348l225 -871h41l205 871h358l-348 -1434h-420l-215 860h-41l-215 -860h-420z" />
<glyph unicode="X" horiz-adv-x="1331" d="M-31 0l482 737l-451 697h389l256 -430h41l256 430h389l-450 -697l481 -737h-389l-287 461h-41l-287 -461h-389z" />
<glyph unicode="Y" horiz-adv-x="1310" d="M-31 1434h369l297 -574h41l297 574h368l-522 -973v-461h-327v461z" />
<glyph unicode="Z" horiz-adv-x="1269" d="M82 0v297l655 819h-645v318h1086v-297l-656 -820h666v-317h-1106z" />
<glyph unicode="[" horiz-adv-x="788" d="M164 -410v1905h553v-287h-246v-1331h246v-287h-553z" />
<glyph unicode="\" horiz-adv-x="870" d="M0 1495h307l563 -1905h-307z" />
<glyph unicode="]" horiz-adv-x="788" d="M72 -123h245v1331h-245v287h553v-1905h-553v287z" />
<glyph unicode="^" horiz-adv-x="952" d="M82 840l215 594h358l215 -594h-266l-123 348h-10l-123 -348h-266z" />
<glyph unicode="_" horiz-adv-x="819" d="M-41 -205h901v-287h-901v287z" />
<glyph unicode="`" horiz-adv-x="624" d="M61 1505h308l194 -297h-256z" />
<glyph unicode="a" horiz-adv-x="1157" d="M72 307q0 152 111 245t319 93h235v21q0 70 -43.5 111.5t-120.5 41.5q-80 0 -131 -47q-24 -24 -32 -45h-297q18 148 136.5 243t323.5 95q224 0 347.5 -109t123.5 -288v-668h-266l-20 92h-10q-23 -29 -70 -57q-83 -55 -217 -55q-180 0 -284.5 92.5t-104.5 234.5zM379 328 q0 -49 38 -81t105 -32q99 0 157 56t58 149v20h-194q-82 0 -123 -31t-41 -81z" />
<glyph unicode="b" horiz-adv-x="1290" d="M133 0v1434h307v-471h11q36 36 63 51q88 51 203 51q137 0 251.5 -69t182.5 -194t68 -280q0 -234 -146 -388t-356 -154q-129 0 -221 61q-44 29 -66 61h-10l-21 -102h-266zM440 522q0 -115 67 -185.5t169 -70.5t168.5 70.5t66.5 185.5t-66.5 185.5t-168.5 70.5t-169 -70.5 t-67 -185.5z" />
<glyph unicode="c" horiz-adv-x="1198" d="M72 522q0 238 152 390.5t390 152.5q274 0 435 -215q68 -99 88 -215h-318q-14 37 -41 72q-63 71 -164 71q-102 0 -168.5 -70.5t-66.5 -185.5t66.5 -185.5t168.5 -70.5q107 0 164 72q24 27 41 72h318q-20 -116 -88 -215q-150 -215 -435 -215q-238 0 -390 152t-152 390z" />
<glyph unicode="d" horiz-adv-x="1290" d="M72 522q0 155 67.5 280t182 194t251.5 69q115 0 203 -51q30 -17 64 -51h10v471h307v-1434h-266l-21 102h-10q-27 -34 -67 -61q-92 -61 -220 -61q-102 0 -194.5 40.5t-160 111t-107 172.5t-39.5 218zM379 522q0 -115 66.5 -185.5t168.5 -70.5t169 70.5t67 185.5t-67 185.5 t-169 70.5t-168.5 -70.5t-66.5 -185.5z" />
<glyph unicode="e" horiz-adv-x="1218" d="M72 522q0 238 152 390.5t390 152.5q230 0 381.5 -149.5t151.5 -372.5q0 -30 -6 -78l-4 -25h-758q8 -94 72.5 -154.5t162.5 -60.5q83 0 148 45q33 25 47 47h307q-40 -100 -104 -170q-159 -167 -398 -167q-238 0 -390 152t-152 390zM379 625h471q-46 204 -236 204 q-189 0 -235 -204z" />
<glyph unicode="f" horiz-adv-x="819" d="M61 758v286h164v144q0 140 75 213.5t222 73.5h236v-256h-154q-72 0 -72 -72v-103h226v-286h-226v-758h-307v758h-164z" />
<glyph unicode="g" horiz-adv-x="1239" d="M72 563q0 222 135.5 362t345.5 140q118 0 203 -61q33 -24 63 -62h10l21 102h266v-1003q0 -218 -131 -339.5t-381 -121.5q-303 0 -436 189q-62 87 -76 190h318q8 -31 34 -57q56 -56 160 -56q99 0 152 51t53 144v123h-10q-29 -32 -62 -51q-79 -52 -184 -52 q-210 0 -345.5 140t-135.5 362zM379 563q0 -92 61.5 -153.5t153.5 -61.5t153.5 61.5t61.5 153.5t-61.5 153.5t-153.5 61.5t-153.5 -61.5t-61.5 -153.5z" />
<glyph unicode="h" horiz-adv-x="1249" d="M133 0v1434h307v-471h11q36 36 63 51q88 51 203 51q185 0 302.5 -119.5t117.5 -310.5v-635h-308v573q0 86 -54 140.5t-140 54.5t-140.5 -54.5t-54.5 -140.5v-573h-307z" />
<glyph unicode="i" horiz-adv-x="552" d="M123 0v1044h307v-1044h-307zM123 1196v266h307v-266h-307z" />
<glyph unicode="j" horiz-adv-x="552" d="M-102 -123h153q72 0 72 72v1095h307v-1167q0 -140 -75 -213.5t-222 -73.5h-235v287zM123 1196v266h307v-266h-307z" />
<glyph unicode="k" horiz-adv-x="1126" d="M133 0v1434h307v-861l359 471h348l-399 -512l419 -532h-348l-379 492v-492h-307z" />
<glyph unicode="l" horiz-adv-x="573" d="M133 0v1434h307v-1434h-307z" />
<glyph unicode="m" horiz-adv-x="1771" d="M123 0v1044h266l21 -92h10q31 34 65 56q79 57 181 57q122 0 219 -72q46 -39 67 -71h11q21 31 71 71q101 72 226 72q170 0 284.5 -120.5t114.5 -309.5v-635h-307v594q0 84 -41.5 129t-112.5 45q-70 0 -112 -45t-42 -129v-594h-307v594q0 84 -41 129t-112 45t-112.5 -45 t-41.5 -129v-594h-307z" />
<glyph unicode="n" horiz-adv-x="1239" d="M123 0v1044h266l21 -92h10q29 32 69 56q86 57 218 57q185 0 302 -119.5t117 -310.5v-635h-307v573q0 86 -54 140.5t-140 54.5t-140.5 -54.5t-54.5 -140.5v-573h-307z" />
<glyph unicode="o" d="M72 522q0 238 152 390.5t390 152.5t390.5 -152.5t152.5 -390.5t-152.5 -390t-390.5 -152t-390 152t-152 390zM379 522q0 -115 66.5 -185.5t168.5 -70.5t169 70.5t67 185.5t-67 185.5t-169 70.5t-168.5 -70.5t-66.5 -185.5z" />
<glyph unicode="p" horiz-adv-x="1280" d="M123 -410v1454h266l21 -102h10q24 35 65 62q92 61 222 61q137 0 251.5 -69t182 -194t67.5 -280q0 -116 -39.5 -218t-107 -172.5t-160 -111t-194.5 -40.5q-122 0 -203 51q-30 17 -64 51h-10v-492h-307zM430 522q0 -115 67 -185.5t169 -70.5t168.5 70.5t66.5 185.5 t-66.5 185.5t-168.5 70.5t-169 -70.5t-67 -185.5z" />
<glyph unicode="q" horiz-adv-x="1280" d="M72 522q0 155 67.5 280t182 194t251.5 69q128 0 220 -61q39 -26 67 -62h10l21 102h266v-1454h-307v492h-10q-34 -34 -64 -51q-81 -51 -203 -51q-102 0 -194.5 40.5t-160 111t-107 172.5t-39.5 218zM379 522q0 -115 66.5 -185.5t168.5 -70.5t169 70.5t67 185.5t-67 185.5 t-169 70.5t-168.5 -70.5t-66.5 -185.5z" />
<glyph unicode="r" horiz-adv-x="829" d="M123 0v1044h266l21 -81h10q21 24 43 41q54 40 141 40h195v-286h-185q-184 0 -184 -185v-573h-307z" />
<glyph unicode="s" horiz-adv-x="1044" d="M51 328h297q3 -37 23 -62q45 -61 151 -61q81 0 122.5 30t41.5 72q0 47 -27 70t-96 33l-153 20q-183 24 -266 99t-83 208q0 138 119 233t332 95q277 0 395 -164q54 -73 66 -164h-297q-10 26 -29 45q-47 47 -135 47q-75 0 -114.5 -26t-39.5 -66q0 -32 28 -52t95 -30 l154 -20q348 -45 348 -328q0 -139 -120.5 -233t-340.5 -94q-290 0 -411 174q-54 79 -60 174z" />
<glyph unicode="t" horiz-adv-x="870" d="M61 758v286h164v328h307v-328h236v-286h-236v-400q0 -71 72 -71h164v-287h-246q-147 0 -222 73.5t-75 213.5v471h-164z" />
<glyph unicode="u" horiz-adv-x="1249" d="M123 410v634h307v-573q0 -86 54.5 -140.5t140.5 -54.5t140 54.5t54 140.5v573h307v-1044h-266l-20 92h-11q-24 -30 -69 -57q-83 -55 -217 -55q-185 0 -302.5 119.5t-117.5 310.5z" />
<glyph unicode="v" horiz-adv-x="1126" d="M10 1044h318l215 -686h41l215 686h317l-348 -1044h-410z" />
<glyph unicode="w" horiz-adv-x="1658" d="M20 1044h318l143 -593h41l154 593h307l154 -593h41l143 593h317l-266 -1044h-379l-143 584h-41l-143 -584h-379z" />
<glyph unicode="x" horiz-adv-x="1085" d="M-10 0l348 532l-328 512h338l174 -296h41l174 296h338l-327 -512l348 -532h-338l-195 328h-41l-194 -328h-338z" />
<glyph unicode="y" horiz-adv-x="1126" d="M-10 1044h327l246 -655h41l205 655h328l-430 -1208q-31 -91 -70 -141.5t-110.5 -77.5t-188.5 -27h-215v287h205q60 0 71 41l11 31z" />
<glyph unicode="z" horiz-adv-x="1034" d="M72 0v276l460 482h-450v286h870v-276l-460 -481h471v-287h-891z" />
<glyph unicode="{" horiz-adv-x="808" d="M82 379v328q68 0 105.5 35.5t37.5 97.5v317q0 154 92 246t246 92h174v-276h-92q-113 0 -113 -113v-328q0 -122 -102 -184q-50 -26 -102 -31v-41q55 -6 102 -30q102 -62 102 -185v-327q0 -113 113 -113h92v-277h-174q-154 0 -246 92t-92 246v318q0 62 -37.5 97.5 t-105.5 35.5z" />
<glyph unicode="|" horiz-adv-x="798" d="M246 -410v1905h307v-1905h-307z" />
<glyph unicode="}" horiz-adv-x="808" d="M72 -133h92q112 0 112 113v327q0 122 103 185q47 24 102 30v41q-52 5 -102 31q-103 63 -103 184v328q0 113 -112 113h-92v276h174q154 0 246 -92t92 -246v-317q0 -62 37.5 -97.5t105.5 -35.5v-328q-68 0 -105.5 -35.5t-37.5 -97.5v-318q0 -154 -92 -246t-246 -92h-174 v277z" />
<glyph unicode="~" d="M72 348q0 215 92.5 327.5t245.5 112.5q67 0 122.5 -24t86.5 -52.5t68 -52.5t71 -24q56 0 84 33.5t28 109.5h287q0 -215 -92.5 -327.5t-245.5 -112.5q-55 0 -101 16t-77.5 38.5t-58 45t-55 38.5t-56.5 16q-113 0 -113 -144h-286z" />
<glyph unicode="&#xa1;" horiz-adv-x="655" d="M164 143l41 430h246l41 -430v-532h-328v532zM164 707v337h328v-337h-328z" />
<glyph unicode="&#xa2;" horiz-adv-x="1198" d="M72 522q0 103 32 193.5t86 156t123.5 109.5t147.5 63v226h307v-226q192 -50 303 -235q49 -87 66 -174h-318q-14 37 -41 72q-63 71 -164 71q-102 0 -168.5 -70.5t-66.5 -185.5t66.5 -185.5t168.5 -70.5q107 0 164 72q24 27 41 72h318q-18 -94 -66 -179 q-108 -188 -303 -231v-225h-307v225q-105 25 -191.5 92.5t-142 180t-55.5 249.5z" />
<glyph unicode="&#xa3;" horiz-adv-x="1280" d="M61 0v307h62q92 0 92 92v174h-154v246h154v185q0 202 130.5 326t350.5 124t356 -129.5t136 -331.5h-318q0 70 -43 112t-120 42q-78 0 -121 -43t-43 -121v-164h379v-246h-379v-174q0 -44 -29 -73q-14 -14 -27 -19h732v-307h-1158z" />
<glyph unicode="&#xa4;" horiz-adv-x="1159" d="M143 397l109 125q-19 26 -27 51q-24 57 -24 144q0 86 24 143q8 25 27 51l-109 125l125 115l107 -117q25 18 55 31q78 31 150 31q61 0 147 -31l57 -31l107 117l125 -115l-109 -125q15 -21 25 -51q26 -61 26 -143q0 -83 -26 -144q-10 -30 -25 -51l109 -125l-125 -114 l-107 116q-27 -18 -57 -30q-76 -31 -147 -31q-82 0 -150 31q-34 12 -55 30l-107 -116zM375 717q0 -87 57 -146t148 -59q90 0 147 59t57 146t-57 146t-147 59q-91 0 -148 -59t-57 -146z" />
<glyph unicode="&#xa5;" horiz-adv-x="1331" d="M-20 1434h368l297 -574h41l297 574h369l-338 -635h143v-215h-328v-133h328v-215h-328v-236h-327v236h-328v215h328v133h-328v215h143z" />
<glyph unicode="&#xa6;" horiz-adv-x="798" d="M246 369h307v-779h-307v779zM246 717v778h307v-778h-307z" />
<glyph unicode="&#xa7;" horiz-adv-x="1341" d="M113 594q0 114 65 207q25 37 68 69q-23 15 -47 50q-45 68 -45 165q0 74 33.5 140t96 117.5t161.5 81.5t221 30q246 0 389 -122.5t143 -307.5h-328q0 72 -53.5 118t-150.5 46q-88 0 -136.5 -36t-48.5 -87q0 -49 34 -76t130 -47l195 -41q207 -42 298 -130.5t91 -238.5 q0 -109 -68 -206q-30 -45 -65 -70q33 -29 51 -59q51 -80 51 -177q0 -74 -33.5 -140t-97.5 -117t-167.5 -81t-233.5 -30q-124 0 -225.5 34t-168.5 93.5t-103 140t-36 172.5h328q0 -80 53.5 -127t151.5 -47q102 0 153 35.5t51 87.5q0 55 -38 87.5t-136 55.5l-194 41 q-207 42 -298 130.5t-91 238.5zM440 604q0 -54 33 -85t111 -48l143 -31l88 -20l35 -10q14 11 24 28q27 35 27 84q0 54 -32.5 85t-110.5 48l-144 31q-18 3 -88 21l-34 10q-18 -15 -27 -29q-25 -32 -25 -84z" />
<glyph unicode="&#xa8;" horiz-adv-x="798" d="M61 1229v256h267v-256h-267zM471 1229v256h266v-256h-266z" />
<glyph unicode="&#xa9;" horiz-adv-x="1699" d="M102 717q0 155 56.5 292t155 234.5t238 154t298.5 56.5q212 0 383 -96t267.5 -265t96.5 -376t-96.5 -376t-267.5 -265t-383 -96q-159 0 -298.5 56.5t-238 154t-155 234.5t-56.5 292zM317 717q0 -230 151.5 -381.5t381.5 -151.5t381 151.5t151 381.5t-151 381t-381 151 t-381.5 -151t-151.5 -381zM481 717q0 161 109 270t270 109q182 0 291 -144q48 -66 68 -143h-205q-10 30 -31 51q-47 51 -123 51q-79 0 -126.5 -51.5t-47.5 -142.5t47.5 -143t126.5 -52q81 0 123 56q23 26 31 57h205q-22 -86 -68 -150q-109 -147 -291 -147q-161 0 -270 109 t-109 270z" />
<glyph unicode="&#xaa;" horiz-adv-x="757" d="M61 973q0 90 70.5 147.5t196.5 57.5h153v30q0 45 -25.5 68.5t-66.5 23.5q-48 0 -78 -30q-12 -20 -14 -31h-205q18 98 91 156.5t202 58.5q139 0 215 -68.5t76 -187.5v-430h-164l-20 61h-11q-13 -19 -41 -36q-60 -35 -133 -35q-114 0 -180 60t-66 155zM266 983 q0 -31 22.5 -51.5t59.5 -20.5q62 0 97.5 35.5t35.5 97.5v11h-133q-37 0 -59.5 -20.5t-22.5 -51.5z" />
<glyph unicode="&#xab;" horiz-adv-x="1249" d="M72 522l297 420h307l-297 -420l297 -420h-307zM573 522l297 420h308l-297 -420l297 -420h-308z" />
<glyph unicode="&#xac;" horiz-adv-x="1146" d="M143 532v287h861v-532h-297v245h-564z" />
<glyph unicode="&#xad;" horiz-adv-x="911" d="M102 440v287h707v-287h-707z" />
<glyph unicode="&#xae;" horiz-adv-x="1699" d="M102 717q0 155 56.5 292t155 234.5t238 154t298.5 56.5q212 0 383 -96t267.5 -265t96.5 -376t-96.5 -376t-267.5 -265t-383 -96q-159 0 -298.5 56.5t-238 154t-155 234.5t-56.5 292zM317 717q0 -230 151.5 -381.5t381.5 -151.5t381 151.5t151 381.5t-151 381t-381 151 t-381.5 -151t-151.5 -381zM584 358v727h327q116 0 186 -67.5t70 -177.5q0 -130 -92 -195q-46 -30 -92 -41l205 -246h-215l-185 236h-20v-236h-184zM768 737h123q41 0 66.5 23.5t25.5 68.5t-26 69t-66 24h-123v-185z" />
<glyph unicode="&#xaf;" horiz-adv-x="798" d="M61 1260v215h676v-215h-676z" />
<glyph unicode="&#xb0;" horiz-adv-x="819" d="M113 1157q0 123 87 210t210 87t210 -87t87 -210t-87 -210t-210 -87t-210 87t-87 210zM297 1157q0 -47 33 -80t80 -33t79.5 33t32.5 80t-32.5 80t-79.5 33t-80 -33t-33 -80z" />
<glyph unicode="&#xb1;" horiz-adv-x="1146" d="M102 0v287h942v-287h-942zM102 717v287h328v348h287v-348h327v-287h-327v-328h-287v328h-328z" />
<glyph unicode="&#xb2;" horiz-adv-x="696" d="M82 1403q0 110 72 178t194 68q115 0 185.5 -67t70.5 -169q0 -71 -23.5 -113.5t-78.5 -91.5l-144 -133v-10h256v-164h-522v148l287 272q19 19 27.5 29t16 27t7.5 36q0 31 -22.5 51.5t-59.5 20.5q-92 0 -92 -82h-174z" />
<glyph unicode="&#xb3;" horiz-adv-x="696" d="M72 1126h174q0 -32 23 -51.5t69 -19.5t69 19.5t23 51.5q0 38 -27.5 60t-74.5 22h-62v144h62q46 0 69 19.5t23 51.5q0 25 -22.5 43.5t-59.5 18.5t-59.5 -18.5t-22.5 -43.5h-174q0 93 71.5 159.5t184.5 66.5q115 0 185.5 -62t70.5 -153q0 -74 -41 -115q-15 -18 -41 -29v-10 q20 -10 45 -35q47 -51 47 -119q0 -100 -72.5 -167.5t-193.5 -67.5t-193.5 66.5t-72.5 168.5z" />
<glyph unicode="&#xb4;" horiz-adv-x="624" d="M61 1208l195 297h307l-246 -297h-256z" />
<glyph unicode="&#xb5;" horiz-adv-x="1249" d="M123 -410v1454h307v-573q0 -86 54.5 -140.5t140.5 -54.5t140 54.5t54 140.5v573h307v-1044h-266l-20 102h-11q-19 -31 -57 -61q-77 -61 -178 -61q-79 0 -125 24q-21 9 -39 27v-441h-307z" />
<glyph unicode="&#xb6;" horiz-adv-x="1280" d="M82 1034q0 175 108 287.5t271 112.5h676v-1639h-267v1383h-143v-1383h-266v840q-163 0 -271 112t-108 287z" />
<glyph unicode="&#xb7;" horiz-adv-x="552" d="M109 369v338h337v-338h-337z" />
<glyph unicode="&#xb8;" horiz-adv-x="512" d="M61 -307h93q82 0 82 61q0 62 -82 62h-62v82l41 92h205l-31 -82q33 -7 72 -31q72 -56 72 -153q0 -89 -68.5 -147t-187.5 -58h-134v174z" />
<glyph unicode="&#xb9;" horiz-adv-x="573" d="M82 1382v164h113q51 0 51 51v41h174v-737h-174v481h-164z" />
<glyph unicode="&#xba;" horiz-adv-x="819" d="M72 1106q0 153 95.5 250.5t242.5 97.5t242.5 -97.5t95.5 -250.5t-95.5 -250.5t-242.5 -97.5t-242.5 97.5t-95.5 250.5zM276 1106q0 -67 39.5 -110.5t94.5 -43.5t94 43t39 111t-39 111t-94 43t-94.5 -43.5t-39.5 -110.5z" />
<glyph unicode="&#xbb;" horiz-adv-x="1249" d="M72 102l297 420l-297 420h307l297 -420l-297 -420h-307zM573 102l297 420l-297 420h308l297 -420l-297 -420h-308z" />
<glyph unicode="&#xbc;" horiz-adv-x="1454" d="M92 1178v163h113q51 0 51 52v41h174v-738h-174v482h-164zM164 0l891 1434h194l-891 -1434h-194zM778 143v144l266 450h246v-440h82v-154h-82v-143h-174v143h-338zM973 297h143v219h-20l-123 -209v-10z" />
<glyph unicode="&#xbd;" horiz-adv-x="1495" d="M92 1178v163h113q51 0 51 52v41h174v-738h-174v482h-164zM164 0l891 1434h194l-891 -1434h-194zM860 502q0 110 72 178t194 68q115 0 185.5 -67t70.5 -169q0 -71 -23.5 -113.5t-78.5 -91.5l-143 -133v-10h256v-164h-523v147l287 273q19 19 27.5 29t16 27t7.5 36 q0 31 -22.5 51.5t-59.5 20.5q-92 0 -92 -82h-174z" />
<glyph unicode="&#xbe;" horiz-adv-x="1536" d="M72 922h174q0 -32 23.5 -52t68.5 -20t68.5 20t23.5 52q0 38 -27.5 60t-74.5 22h-62v143h62q45 0 68.5 20t23.5 52q0 25 -22.5 43t-59.5 18t-59.5 -18t-22.5 -43h-174q0 93 71.5 159t184.5 66q115 0 185.5 -62t70.5 -153q0 -74 -41 -115q-15 -18 -41 -29v-10 q20 -10 45 -35q47 -51 47 -118q0 -100 -72.5 -168t-193.5 -68t-193.5 67t-72.5 169zM246 0l891 1434h194l-891 -1434h-194zM860 143v144l266 450h246v-440h82v-154h-82v-143h-174v143h-338zM1055 297h143v219h-20l-123 -209v-10z" />
<glyph unicode="&#xbf;" horiz-adv-x="1126" d="M61 -10q0 235 215 338q81 40 112.5 78.5t31.5 105.5v61h307v-61q0 -95 -25.5 -159t-68.5 -102t-121 -77q-64 -32 -88.5 -63.5t-24.5 -90.5q0 -56 44.5 -94.5t119.5 -38.5q76 0 120 40.5t44 103.5h328q0 -92 -35.5 -172.5t-100 -140t-159 -94t-207.5 -34.5 q-222 0 -357 116.5t-135 283.5zM410 707v337h327v-337h-327z" />
<glyph unicode="&#xc0;" horiz-adv-x="1433" d="M-10 0l491 1434h471l492 -1434h-359l-92 287h-553l-92 -287h-358zM348 1874h307l195 -297h-256zM532 573h369l-164 512h-41z" />
<glyph unicode="&#xc1;" horiz-adv-x="1433" d="M-10 0l491 1434h471l492 -1434h-359l-92 287h-553l-92 -287h-358zM532 573h369l-164 512h-41zM594 1577l194 297h308l-246 -297h-256z" />
<glyph unicode="&#xc2;" horiz-adv-x="1433" d="M-10 0l491 1434h471l492 -1434h-359l-92 287h-553l-92 -287h-358zM338 1577l246 297h266l246 -297h-267l-112 133l-113 -133h-266zM532 573h369l-164 512h-41z" />
<glyph unicode="&#xc3;" horiz-adv-x="1433" d="M-10 0l491 1434h471l492 -1434h-359l-92 287h-553l-92 -287h-358zM369 1587q0 128 61.5 197t163.5 69q34 0 66.5 -11t52.5 -24.5t43.5 -24.5t42.5 -11q31 0 51 20t20 51h195q0 -128 -61.5 -197t-163.5 -69q-44 0 -82.5 18t-69 36t-53.5 18q-31 0 -51.5 -20.5t-20.5 -51.5 h-194zM532 573h369l-164 512h-41z" />
<glyph unicode="&#xc4;" horiz-adv-x="1433" d="M-10 0l491 1434h471l492 -1434h-359l-92 287h-553l-92 -287h-358zM379 1597v256h266v-256h-266zM532 573h369l-164 512h-41zM788 1597v256h267v-256h-267z" />
<glyph unicode="&#xc5;" horiz-adv-x="1433" d="M-10 0l491 1434h471l492 -1434h-359l-92 287h-553l-92 -287h-358zM492 1741q0 93 63 154t162 61t162 -61t63 -154t-63 -154t-162 -61t-162 61t-63 154zM532 573h369l-164 512h-41zM645 1741q0 -31 20.5 -51.5t51.5 -20.5t51 20.5t20 51.5t-20 51t-51 20t-51.5 -20 t-20.5 -51z" />
<glyph unicode="&#xc6;" horiz-adv-x="1976" d="M-41 0l625 1434h1290v-297h-655v-277h614v-287h-614v-276h655v-297h-983v297h-451l-123 -297h-358zM563 584h328v553h-92z" />
<glyph unicode="&#xc7;" horiz-adv-x="1495" d="M82 717q0 159 54.5 297t148 234t221.5 151t272 55q348 0 535 -276q79 -117 121 -277h-328q-21 65 -64 117q-99 119 -264 119q-157 0 -262.5 -116t-105.5 -304t105.5 -304t262.5 -116q177 0 269 123q41 53 59 123h328q-35 -146 -105 -262q-171 -269 -471 -297l-29 -76 q33 -7 72 -31q72 -56 72 -153q0 -89 -68.5 -147t-187.5 -58h-133v174h92q82 0 82 61q0 62 -82 62h-62v82l43 92q-250 42 -412.5 243t-162.5 484z" />
<glyph unicode="&#xc8;" d="M143 0v1434h983v-297h-655v-277h614v-287h-614v-276h655v-297h-983zM266 1874h307l195 -297h-256z" />
<glyph unicode="&#xc9;" d="M143 0v1434h983v-297h-655v-277h614v-287h-614v-276h655v-297h-983zM512 1577l195 297h307l-246 -297h-256z" />
<glyph unicode="&#xca;" d="M143 0v1434h983v-297h-655v-277h614v-287h-614v-276h655v-297h-983zM256 1577l246 297h266l246 -297h-266l-113 133l-113 -133h-266z" />
<glyph unicode="&#xcb;" d="M143 0v1434h983v-297h-655v-277h614v-287h-614v-276h655v-297h-983zM297 1597v256h266v-256h-266zM707 1597v256h266v-256h-266z" />
<glyph unicode="&#xcc;" horiz-adv-x="614" d="M-61 1874h307l194 -297h-256zM143 0v1434h328v-1434h-328z" />
<glyph unicode="&#xcd;" horiz-adv-x="614" d="M143 0v1434h328v-1434h-328zM184 1577l195 297h307l-246 -297h-256z" />
<glyph unicode="&#xce;" horiz-adv-x="614" d="M-72 1577l246 297h266l246 -297h-266l-113 133l-112 -133h-267zM143 0v1434h328v-1434h-328z" />
<glyph unicode="&#xcf;" horiz-adv-x="614" d="M-31 1597v256h267v-256h-267zM143 0v1434h328v-1434h-328zM379 1597v256h266v-256h-266z" />
<glyph unicode="&#xd0;" horiz-adv-x="1505" d="M31 584v266h164v584h532q191 0 350.5 -93t252.5 -258t93 -366t-93 -366t-252.5 -258t-350.5 -93h-532v584h-164zM522 317h205q156 0 262.5 112.5t106.5 287.5t-106.5 287t-262.5 112h-205v-266h266v-266h-266v-267z" />
<glyph unicode="&#xd1;" horiz-adv-x="1505" d="M143 0v1434h400l450 -861h41v861h328v-1434h-399l-451 860h-41v-860h-328zM410 1587q0 128 61.5 197t163.5 69q34 0 66.5 -11t52.5 -24.5t43.5 -24.5t42.5 -11q31 0 51 20t20 51h195q0 -128 -61.5 -197t-163.5 -69q-44 0 -82.5 18t-69 36t-53.5 18q-31 0 -51.5 -20.5 t-20.5 -51.5h-194z" />
<glyph unicode="&#xd2;" horiz-adv-x="1556" d="M82 717q0 159 54.5 297t148 234t221.5 151t272 55t272 -55t222 -151t148.5 -234t54.5 -297t-54.5 -297t-148.5 -234t-222 -151t-272 -55t-272 55t-221.5 151t-148 234t-54.5 297zM410 717q0 -188 105.5 -304t262.5 -116t263 116t106 304t-106 304t-263 116t-262.5 -116 t-105.5 -304zM410 1874h307l194 -297h-256z" />
<glyph unicode="&#xd3;" horiz-adv-x="1556" d="M82 717q0 159 54.5 297t148 234t221.5 151t272 55t272 -55t222 -151t148.5 -234t54.5 -297t-54.5 -297t-148.5 -234t-222 -151t-272 -55t-272 55t-221.5 151t-148 234t-54.5 297zM410 717q0 -188 105.5 -304t262.5 -116t263 116t106 304t-106 304t-263 116t-262.5 -116 t-105.5 -304zM655 1577l195 297h307l-246 -297h-256z" />
<glyph unicode="&#xd4;" horiz-adv-x="1556" d="M82 717q0 159 54.5 297t148 234t221.5 151t272 55t272 -55t222 -151t148.5 -234t54.5 -297t-54.5 -297t-148.5 -234t-222 -151t-272 -55t-272 55t-221.5 151t-148 234t-54.5 297zM399 1577l246 297h266l246 -297h-266l-113 133l-112 -133h-267zM410 717 q0 -188 105.5 -304t262.5 -116t263 116t106 304t-106 304t-263 116t-262.5 -116t-105.5 -304z" />
<glyph unicode="&#xd5;" horiz-adv-x="1556" d="M82 717q0 159 54.5 297t148 234t221.5 151t272 55t272 -55t222 -151t148.5 -234t54.5 -297t-54.5 -297t-148.5 -234t-222 -151t-272 -55t-272 55t-221.5 151t-148 234t-54.5 297zM410 717q0 -188 105.5 -304t262.5 -116t263 116t106 304t-106 304t-263 116t-262.5 -116 t-105.5 -304zM430 1587q0 128 61.5 197t163.5 69q34 0 66.5 -11t52.5 -24.5t43.5 -24.5t42.5 -11q31 0 51.5 20t20.5 51h194q0 -128 -61.5 -197t-163.5 -69q-44 0 -82.5 18t-69 36t-53.5 18q-31 0 -51 -20.5t-20 -51.5h-195z" />
<glyph unicode="&#xd6;" horiz-adv-x="1556" d="M82 717q0 159 54.5 297t148 234t221.5 151t272 55t272 -55t222 -151t148.5 -234t54.5 -297t-54.5 -297t-148.5 -234t-222 -151t-272 -55t-272 55t-221.5 151t-148 234t-54.5 297zM410 717q0 -188 105.5 -304t262.5 -116t263 116t106 304t-106 304t-263 116t-262.5 -116 t-105.5 -304zM440 1597v256h267v-256h-267zM850 1597v256h266v-256h-266z" />
<glyph unicode="&#xd7;" horiz-adv-x="1146" d="M123 338l246 256l-246 256l205 205l245 -256l246 256l205 -205l-246 -256l246 -256l-205 -205l-246 256l-245 -256z" />
<glyph unicode="&#xd8;" horiz-adv-x="1576" d="M82 717q0 159 56 297t151 234t225 151t274 55q80 0 158 -16l58 -15l40 82h328l-123 -225q73 -61 123 -139q123 -187 123 -424q0 -159 -56 -297t-151.5 -234t-225.5 -151t-274 -55q-89 0 -157 14q-50 13 -58 16l-41 -82h-327l123 226q-73 61 -123 139q-123 187 -123 424z M410 717q0 -110 34 -191q14 -36 37 -65l369 665l-16 4q-35 7 -46 7q-158 0 -268 -116.5t-110 -303.5zM727 307l14 -6q28 -4 47 -4q158 0 268.5 116.5t110.5 303.5q0 100 -37 188q-14 34 -34 68z" />
<glyph unicode="&#xd9;" horiz-adv-x="1474" d="M133 594v840h328v-840q0 -129 79.5 -213t196.5 -84t197 84t80 213v840h327v-840q0 -282 -163.5 -448t-440.5 -166t-440.5 166t-163.5 448zM369 1874h307l194 -297h-256z" />
<glyph unicode="&#xda;" horiz-adv-x="1474" d="M133 594v840h328v-840q0 -129 79.5 -213t196.5 -84t197 84t80 213v840h327v-840q0 -282 -163.5 -448t-440.5 -166t-440.5 166t-163.5 448zM604 1577l195 297h307l-246 -297h-256z" />
<glyph unicode="&#xdb;" horiz-adv-x="1474" d="M133 594v840h328v-840q0 -129 79.5 -213t196.5 -84t197 84t80 213v840h327v-840q0 -282 -163.5 -448t-440.5 -166t-440.5 166t-163.5 448zM358 1577l246 297h266l246 -297h-266l-113 133l-112 -133h-267z" />
<glyph unicode="&#xdc;" horiz-adv-x="1474" d="M133 594v840h328v-840q0 -129 79.5 -213t196.5 -84t197 84t80 213v840h327v-840q0 -282 -163.5 -448t-440.5 -166t-440.5 166t-163.5 448zM399 1597v256h267v-256h-267zM809 1597v256h266v-256h-266z" />
<glyph unicode="&#xdd;" horiz-adv-x="1310" d="M-31 1434h369l297 -574h41l297 574h368l-522 -973v-461h-327v461zM532 1577l195 297h307l-246 -297h-256z" />
<glyph unicode="&#xde;" horiz-adv-x="1464" d="M143 0v1434h328v-246h440q221 0 351.5 -128.5t130.5 -342.5q0 -217 -130.5 -344t-351.5 -127h-440v-246h-328zM471 553h420q77 0 125.5 47t48.5 117t-48.5 117t-125.5 47h-420v-328z" />
<glyph unicode="&#xdf;" horiz-adv-x="1239" d="M123 0v1004q0 205 135 327.5t377 122.5q230 0 366 -118t136 -292q0 -141 -88 -237q-34 -37 -86 -59v-11q58 -27 102 -71q102 -102 102 -256q0 -187 -119 -298.5t-331 -111.5h-123v276h61q84 0 134.5 46.5t50.5 117.5t-50.5 117.5t-134.5 46.5h-61v277h51q76 0 120 40 t44 103q0 64 -45 103.5t-129 39.5q-91 0 -137.5 -42t-46.5 -121v-1004h-328z" />
<glyph unicode="&#xe0;" horiz-adv-x="1157" d="M72 307q0 152 111 245t319 93h235v21q0 70 -43.5 111.5t-120.5 41.5q-80 0 -131 -47q-24 -24 -32 -45h-297q18 148 136.5 243t323.5 95q224 0 347.5 -109t123.5 -288v-668h-266l-20 92h-10q-23 -29 -70 -57q-83 -55 -217 -55q-180 0 -284.5 92.5t-104.5 234.5zM225 1495 h307l195 -297h-256zM379 328q0 -49 38 -81t105 -32q99 0 157 56t58 149v20h-194q-82 0 -123 -31t-41 -81z" />
<glyph unicode="&#xe1;" horiz-adv-x="1157" d="M72 307q0 152 111 245t319 93h235v21q0 70 -43.5 111.5t-120.5 41.5q-80 0 -131 -47q-24 -24 -32 -45h-297q18 148 136.5 243t323.5 95q224 0 347.5 -109t123.5 -288v-668h-266l-20 92h-10q-23 -29 -70 -57q-83 -55 -217 -55q-180 0 -284.5 92.5t-104.5 234.5zM379 328 q0 -49 38 -81t105 -32q99 0 157 56t58 149v20h-194q-82 0 -123 -31t-41 -81zM471 1198l195 297h307l-246 -297h-256z" />
<glyph unicode="&#xe2;" horiz-adv-x="1157" d="M72 307q0 152 111 245t319 93h235v21q0 70 -43.5 111.5t-120.5 41.5q-80 0 -131 -47q-24 -24 -32 -45h-297q18 148 136.5 243t323.5 95q224 0 347.5 -109t123.5 -288v-668h-266l-20 92h-10q-23 -29 -70 -57q-83 -55 -217 -55q-180 0 -284.5 92.5t-104.5 234.5zM225 1198 l246 297h266l246 -297h-266l-113 133l-112 -133h-267zM379 328q0 -49 38 -81t105 -32q99 0 157 56t58 149v20h-194q-82 0 -123 -31t-41 -81z" />
<glyph unicode="&#xe3;" horiz-adv-x="1157" d="M72 307q0 152 111 245t319 93h235v21q0 70 -43.5 111.5t-120.5 41.5q-80 0 -131 -47q-24 -24 -32 -45h-297q18 148 136.5 243t323.5 95q224 0 347.5 -109t123.5 -288v-668h-266l-20 92h-10q-23 -29 -70 -57q-83 -55 -217 -55q-180 0 -284.5 92.5t-104.5 234.5zM256 1208 q0 128 61.5 197.5t163.5 69.5q44 0 82.5 -18t69 -36t53.5 -18q31 0 51.5 20.5t20.5 51.5h194q0 -128 -61.5 -197.5t-163.5 -69.5q-44 0 -82.5 18t-69 36t-53.5 18q-31 0 -51 -20.5t-20 -51.5h-195zM379 328q0 -49 38 -81t105 -32q99 0 157 56t58 149v20h-194q-82 0 -123 -31 t-41 -81z" />
<glyph unicode="&#xe4;" horiz-adv-x="1157" d="M72 307q0 152 111 245t319 93h235v21q0 70 -43.5 111.5t-120.5 41.5q-80 0 -131 -47q-24 -24 -32 -45h-297q18 148 136.5 243t323.5 95q224 0 347.5 -109t123.5 -288v-668h-266l-20 92h-10q-23 -29 -70 -57q-83 -55 -217 -55q-180 0 -284.5 92.5t-104.5 234.5zM266 1208 v256h266v-256h-266zM379 328q0 -49 38 -81t105 -32q99 0 157 56t58 149v20h-194q-82 0 -123 -31t-41 -81zM676 1208v256h266v-256h-266z" />
<glyph unicode="&#xe5;" horiz-adv-x="1157" d="M72 307q0 152 111 245t319 93h235v21q0 70 -43.5 111.5t-120.5 41.5q-80 0 -131 -47q-24 -24 -32 -45h-297q18 148 136.5 243t323.5 95q224 0 347.5 -109t123.5 -288v-668h-266l-20 92h-10q-23 -29 -70 -57q-83 -55 -217 -55q-180 0 -284.5 92.5t-104.5 234.5zM379 328 q0 -49 38 -81t105 -32q99 0 157 56t58 149v20h-194q-82 0 -123 -31t-41 -81zM379 1362q0 93 63 154t162 61t162 -61t63 -154t-63 -154t-162 -61t-162 61t-63 154zM532 1362q0 -31 20.5 -51.5t51.5 -20.5t51.5 20.5t20.5 51.5t-20.5 51.5t-51.5 20.5t-51.5 -20.5t-20.5 -51.5 z" />
<glyph unicode="&#xe6;" horiz-adv-x="1853" d="M72 307q0 152 111 245t319 93h235v21q0 70 -43.5 111.5t-120.5 41.5q-80 0 -131 -47q-24 -24 -32 -45h-297q18 147 133.5 242.5t306.5 95.5q160 0 274 -82q49 -35 84 -82q32 44 86 82q118 82 273 82q142 0 259 -68t185 -188t68 -266q0 -30 -6 -78l-4 -25h-717 q8 -93 68.5 -154t146.5 -61q84 0 137 45q25 24 37 47h307q-31 -99 -94 -170q-143 -167 -387 -167q-169 0 -295 86q-55 37 -94 88q-37 -49 -99 -88q-136 -86 -321 -86q-180 0 -284.5 92.5t-104.5 234.5zM379 328q0 -49 38 -81t105 -32q99 0 157 56t58 149v20h-194 q-82 0 -123 -31t-41 -81zM1055 625h430q-23 99 -79.5 151.5t-135.5 52.5t-135.5 -52.5t-79.5 -151.5z" />
<glyph unicode="&#xe7;" horiz-adv-x="1198" d="M72 522q0 238 152 390.5t390 152.5q274 0 435 -215q68 -99 88 -215h-318q-14 37 -41 72q-63 71 -164 71q-102 0 -168.5 -70.5t-66.5 -185.5t66.5 -185.5t168.5 -70.5q107 0 164 72q24 27 41 72h318q-19 -107 -70 -187q-117 -192 -340 -233l-31 -82q33 -7 72 -31 q72 -56 72 -153q0 -89 -68.5 -147t-187.5 -58h-133v174h92q82 0 82 61q0 62 -82 62h-62v82l39 88q-200 29 -324 176.5t-124 359.5z" />
<glyph unicode="&#xe8;" horiz-adv-x="1218" d="M72 522q0 238 152 390.5t390 152.5q230 0 381.5 -149.5t151.5 -372.5q0 -30 -6 -78l-4 -25h-758q8 -94 72.5 -154.5t162.5 -60.5q83 0 148 45q33 25 47 47h307q-40 -100 -104 -170q-159 -167 -398 -167q-238 0 -390 152t-152 390zM236 1495h307l194 -297h-256zM379 625 h471q-46 204 -236 204q-189 0 -235 -204z" />
<glyph unicode="&#xe9;" horiz-adv-x="1218" d="M72 522q0 238 152 390.5t390 152.5q230 0 381.5 -149.5t151.5 -372.5q0 -30 -6 -78l-4 -25h-758q8 -94 72.5 -154.5t162.5 -60.5q83 0 148 45q33 25 47 47h307q-40 -100 -104 -170q-159 -167 -398 -167q-238 0 -390 152t-152 390zM379 625h471q-46 204 -236 204 q-189 0 -235 -204zM481 1198l195 297h307l-246 -297h-256z" />
<glyph unicode="&#xea;" horiz-adv-x="1218" d="M72 522q0 238 152 390.5t390 152.5q230 0 381.5 -149.5t151.5 -372.5q0 -30 -6 -78l-4 -25h-758q8 -94 72.5 -154.5t162.5 -60.5q83 0 148 45q33 25 47 47h307q-40 -100 -104 -170q-159 -167 -398 -167q-238 0 -390 152t-152 390zM225 1198l246 297h266l246 -297h-266 l-113 133l-112 -133h-267zM379 625h471q-46 204 -236 204q-189 0 -235 -204z" />
<glyph unicode="&#xeb;" horiz-adv-x="1218" d="M72 522q0 238 152 390.5t390 152.5q230 0 381.5 -149.5t151.5 -372.5q0 -30 -6 -78l-4 -25h-758q8 -94 72.5 -154.5t162.5 -60.5q83 0 148 45q33 25 47 47h307q-40 -100 -104 -170q-159 -167 -398 -167q-238 0 -390 152t-152 390zM266 1208v256h266v-256h-266zM379 625 h471q-46 204 -236 204q-189 0 -235 -204zM676 1208v256h266v-256h-266z" />
<glyph unicode="&#xec;" horiz-adv-x="552" d="M-102 1495h307l194 -297h-256zM123 0v1044h307v-1044h-307z" />
<glyph unicode="&#xed;" horiz-adv-x="552" d="M123 0v1044h307v-1044h-307zM154 1198l194 297h307l-245 -297h-256z" />
<glyph unicode="&#xee;" horiz-adv-x="552" d="M-102 1198l245 297h267l245 -297h-266l-113 133l-112 -133h-266zM123 0v1044h307v-1044h-307z" />
<glyph unicode="&#xef;" horiz-adv-x="552" d="M-61 1208v256h266v-256h-266zM123 0v1044h307v-1044h-307zM348 1208v256h266v-256h-266z" />
<glyph unicode="&#xf0;" d="M72 471q0 208 133.5 339.5t347.5 131.5q103 0 199 -47q39 -20 67 -45h10q-35 93 -116 197q-37 47 -78 90l-256 -133l-103 153l205 103q-50 40 -67 51q-47 38 -138 82l205 102q95 -53 133 -82q38 -24 72 -51l246 123l102 -154l-194 -102q83 -74 153 -180 q154 -237 154 -496q0 -260 -153 -416.5t-400 -156.5q-145 0 -265.5 66.5t-188.5 179t-68 245.5zM389 471q0 -85 62 -145t153 -60t153 60t62 145t-62 145t-153 60t-153 -60t-62 -145z" />
<glyph unicode="&#xf1;" horiz-adv-x="1239" d="M123 0v1044h266l21 -92h10q29 32 69 56q86 57 218 57q185 0 302 -119.5t117 -310.5v-635h-307v573q0 86 -54 140.5t-140 54.5t-140.5 -54.5t-54.5 -140.5v-573h-307zM276 1208q0 128 62 197.5t164 69.5q44 0 82.5 -18t69 -36t53.5 -18q31 0 51 20.5t20 51.5h195 q0 -128 -61.5 -197.5t-163.5 -69.5q-44 0 -82.5 18t-69 36t-53.5 18q-31 0 -51.5 -20.5t-20.5 -51.5h-195z" />
<glyph unicode="&#xf2;" d="M72 522q0 238 152 390.5t390 152.5t390.5 -152.5t152.5 -390.5t-152.5 -390t-390.5 -152t-390 152t-152 390zM246 1495h307l195 -297h-256zM379 522q0 -115 66.5 -185.5t168.5 -70.5t169 70.5t67 185.5t-67 185.5t-169 70.5t-168.5 -70.5t-66.5 -185.5z" />
<glyph unicode="&#xf3;" d="M72 522q0 238 152 390.5t390 152.5t390.5 -152.5t152.5 -390.5t-152.5 -390t-390.5 -152t-390 152t-152 390zM379 522q0 -115 66.5 -185.5t168.5 -70.5t169 70.5t67 185.5t-67 185.5t-169 70.5t-168.5 -70.5t-66.5 -185.5zM492 1198l194 297h307l-245 -297h-256z" />
<glyph unicode="&#xf4;" d="M72 522q0 238 152 390.5t390 152.5t390.5 -152.5t152.5 -390.5t-152.5 -390t-390.5 -152t-390 152t-152 390zM236 1198l245 297h267l245 -297h-266l-113 133l-112 -133h-266zM379 522q0 -115 66.5 -185.5t168.5 -70.5t169 70.5t67 185.5t-67 185.5t-169 70.5 t-168.5 -70.5t-66.5 -185.5z" />
<glyph unicode="&#xf5;" d="M72 522q0 238 152 390.5t390 152.5t390.5 -152.5t152.5 -390.5t-152.5 -390t-390.5 -152t-390 152t-152 390zM266 1208q0 128 62 197.5t164 69.5q44 0 82.5 -18t68.5 -36t53 -18q31 0 51.5 20.5t20.5 51.5h195q0 -128 -62 -197.5t-164 -69.5q-44 0 -82.5 18t-69 36 t-53.5 18q-31 0 -51 -20.5t-20 -51.5h-195zM379 522q0 -115 66.5 -185.5t168.5 -70.5t169 70.5t67 185.5t-67 185.5t-169 70.5t-168.5 -70.5t-66.5 -185.5z" />
<glyph unicode="&#xf6;" d="M72 522q0 238 152 390.5t390 152.5t390.5 -152.5t152.5 -390.5t-152.5 -390t-390.5 -152t-390 152t-152 390zM276 1208v256h267v-256h-267zM379 522q0 -115 66.5 -185.5t168.5 -70.5t169 70.5t67 185.5t-67 185.5t-169 70.5t-168.5 -70.5t-66.5 -185.5zM686 1208v256h266 v-256h-266z" />
<glyph unicode="&#xf7;" horiz-adv-x="1126" d="M113 461v266h901v-266h-901zM420 215q0 61 41 102t102 41q62 0 103 -41t41 -102t-41 -102t-103 -41q-61 0 -102 41t-41 102zM420 973q0 61 41 102t102 41q62 0 103 -41t41 -102t-41.5 -102.5t-102.5 -41.5t-102 41t-41 103z" />
<glyph unicode="&#xf8;" d="M72 522q0 238 152 390.5t390 152.5q70 0 115 -10l39 -11l41 72h256l-92 -174q50 -39 92 -102q92 -141 92 -318q0 -238 -152.5 -390t-390.5 -152q-69 0 -114 10q-22 3 -39 10l-41 -72h-256l92 174q-49 38 -92 103q-92 141 -92 317zM338 522q0 -76 24 -129q6 -15 27 -45 l256 471h-31q-117 0 -196.5 -84t-79.5 -213zM584 225h30q117 0 197 84t80 213q0 69 -27 129q-9 24 -24 45z" />
<glyph unicode="&#xf9;" horiz-adv-x="1249" d="M123 410v634h307v-573q0 -86 54.5 -140.5t140.5 -54.5t140 54.5t54 140.5v573h307v-1044h-266l-20 92h-11q-24 -30 -69 -57q-83 -55 -217 -55q-185 0 -302.5 119.5t-117.5 310.5zM256 1495h307l195 -297h-256z" />
<glyph unicode="&#xfa;" horiz-adv-x="1249" d="M123 410v634h307v-573q0 -86 54.5 -140.5t140.5 -54.5t140 54.5t54 140.5v573h307v-1044h-266l-20 92h-11q-24 -30 -69 -57q-83 -55 -217 -55q-185 0 -302.5 119.5t-117.5 310.5zM492 1198l194 297h307l-245 -297h-256z" />
<glyph unicode="&#xfb;" horiz-adv-x="1249" d="M123 410v634h307v-573q0 -86 54.5 -140.5t140.5 -54.5t140 54.5t54 140.5v573h307v-1044h-266l-20 92h-11q-24 -30 -69 -57q-83 -55 -217 -55q-185 0 -302.5 119.5t-117.5 310.5zM246 1198l246 297h266l246 -297h-267l-112 133l-113 -133h-266z" />
<glyph unicode="&#xfc;" horiz-adv-x="1249" d="M123 410v634h307v-573q0 -86 54.5 -140.5t140.5 -54.5t140 54.5t54 140.5v573h307v-1044h-266l-20 92h-11q-24 -30 -69 -57q-83 -55 -217 -55q-185 0 -302.5 119.5t-117.5 310.5zM287 1208v256h266v-256h-266zM696 1208v256h267v-256h-267z" />
<glyph unicode="&#xfd;" horiz-adv-x="1126" d="M-10 1044h327l246 -655h41l205 655h328l-430 -1208q-31 -91 -70 -141.5t-110.5 -77.5t-188.5 -27h-215v287h205q60 0 71 41l11 31zM430 1198l195 297h307l-246 -297h-256z" />
<glyph unicode="&#xfe;" horiz-adv-x="1290" d="M133 -410v1844h307v-471h11q36 36 63 51q88 51 203 51q137 0 251.5 -69t182.5 -194t68 -280q0 -234 -146 -388t-356 -154q-122 0 -203 51q-27 15 -63 51h-11v-492h-307zM440 522q0 -115 67 -185.5t169 -70.5t168.5 70.5t66.5 185.5t-66.5 185.5t-168.5 70.5t-169 -70.5 t-67 -185.5z" />
<glyph unicode="&#xff;" horiz-adv-x="1126" d="M-10 1044h327l246 -655h41l205 655h328l-430 -1208q-31 -91 -70 -141.5t-110.5 -77.5t-188.5 -27h-215v287h205q60 0 71 41l11 31zM225 1208v256h267v-256h-267zM635 1208v256h266v-256h-266z" />
<glyph unicode="&#x152;" horiz-adv-x="2201" d="M82 717q0 159 54.5 297t147 234t218.5 151t266 55q149 0 270 -72q63 -41 88 -71h11v123h962v-297h-655v-277h614v-287h-614v-276h655v-297h-962v123h-11q-36 -42 -88 -72q-107 -71 -270 -71q-140 0 -266 55t-218.5 151t-147 234t-54.5 297zM410 717q0 -187 104 -303.5 t254 -116.5t254 116.5t104 303.5t-104 303.5t-254 116.5t-254 -116.5t-104 -303.5z" />
<glyph unicode="&#x153;" horiz-adv-x="1935" d="M72 522q0 236 149.5 389.5t374.5 153.5q145 0 274 -88q54 -39 93 -86q41 50 94 86q129 88 295 88q142 0 259 -68t185 -188t68 -266q0 -30 -6 -78l-5 -25h-716q8 -93 68.5 -154t146.5 -61q84 0 137 45q25 24 37 47h307q-31 -99 -94 -170q-143 -167 -387 -167 q-169 0 -295 86q-55 37 -94 88q-37 -48 -93 -88q-126 -86 -276 -86q-224 0 -373 153t-149 389zM379 522q0 -113 63 -184.5t152 -71.5t152 71.5t63 184.5t-63 184.5t-152 71.5t-152 -71.5t-63 -184.5zM1137 625h430q-23 99 -79.5 151.5t-135.5 52.5t-135.5 -52.5 t-79.5 -151.5z" />
<glyph unicode="&#x178;" horiz-adv-x="1310" d="M-31 1434h369l297 -574h41l297 574h368l-522 -973v-461h-327v461zM317 1597v256h267v-256h-267zM727 1597v256h266v-256h-266z" />
<glyph unicode="&#x2c6;" horiz-adv-x="880" d="M61 1208l246 297h266l246 -297h-266l-113 133l-112 -133h-267z" />
<glyph unicode="&#x2dc;" horiz-adv-x="819" d="M61 1219q0 127 61.5 196.5t164.5 69.5q44 0 82.5 -18t69 -36t53.5 -18q31 0 51 20.5t20 51.5h195q0 -127 -61.5 -196.5t-164.5 -69.5q-34 0 -66 11t-52 24.5t-43.5 24.5t-42.5 11q-31 0 -51.5 -20t-20.5 -51h-195z" />
<glyph unicode="&#x2000;" horiz-adv-x="978" />
<glyph unicode="&#x2001;" horiz-adv-x="1956" />
<glyph unicode="&#x2002;" horiz-adv-x="978" />
<glyph unicode="&#x2003;" horiz-adv-x="1956" />
<glyph unicode="&#x2004;" horiz-adv-x="652" />
<glyph unicode="&#x2005;" horiz-adv-x="489" />
<glyph unicode="&#x2006;" horiz-adv-x="326" />
<glyph unicode="&#x2007;" horiz-adv-x="326" />
<glyph unicode="&#x2008;" horiz-adv-x="244" />
<glyph unicode="&#x2009;" horiz-adv-x="391" />
<glyph unicode="&#x200a;" horiz-adv-x="108" />
<glyph unicode="&#x2010;" horiz-adv-x="911" d="M102 440v287h707v-287h-707z" />
<glyph unicode="&#x2011;" horiz-adv-x="911" d="M102 440v287h707v-287h-707z" />
<glyph unicode="&#x2012;" horiz-adv-x="911" d="M102 440v287h707v-287h-707z" />
<glyph unicode="&#x2013;" horiz-adv-x="1208" d="M82 440v287h1044v-287h-1044z" />
<glyph unicode="&#x2014;" horiz-adv-x="1597" d="M82 440v287h1434v-287h-1434z" />
<glyph unicode="&#x2018;" horiz-adv-x="563" d="M82 911l143 523h246l-51 -523h-338z" />
<glyph unicode="&#x2019;" horiz-adv-x="563" d="M92 911l51 523h338l-143 -523h-246z" />
<glyph unicode="&#x201a;" horiz-adv-x="573" d="M82 -184l51 522h338l-143 -522h-246z" />
<glyph unicode="&#x201c;" horiz-adv-x="1013" d="M82 911l143 523h246l-51 -523h-338zM532 911l144 523h246l-52 -523h-338z" />
<glyph unicode="&#x201d;" horiz-adv-x="1013" d="M92 911l51 523h338l-143 -523h-246zM543 911l51 523h338l-144 -523h-245z" />
<glyph unicode="&#x201e;" horiz-adv-x="1024" d="M82 -184l51 522h338l-143 -522h-246zM532 -184l52 522h338l-144 -522h-246z" />
<glyph unicode="&#x2022;" horiz-adv-x="1044" d="M246 553q0 115 80 195.5t196 80.5t196.5 -80.5t80.5 -195.5t-80.5 -196t-196.5 -81q-115 0 -195.5 80.5t-80.5 196.5z" />
<glyph unicode="&#x2026;" horiz-adv-x="1710" d="M123 0v338h338v-338h-338zM686 0v338h338v-338h-338zM1249 0v338h338v-338h-338z" />
<glyph unicode="&#x202f;" horiz-adv-x="391" />
<glyph unicode="&#x2039;" horiz-adv-x="747" d="M72 522l297 420h307l-297 -420l297 -420h-307z" />
<glyph unicode="&#x203a;" horiz-adv-x="747" d="M72 102l297 420l-297 420h307l297 -420l-297 -420h-307z" />
<glyph unicode="&#x205f;" horiz-adv-x="489" />
<glyph unicode="&#x20ac;" horiz-adv-x="1454" d="M51 461v184h164v143h-164v185h195q47 132 137 239q208 242 559 242q166 0 313 -47q59 -20 107 -45v-287q-42 22 -107 45q-139 47 -282 47q-175 0 -293 -98q-50 -42 -86 -96h502v-185h-564v-143h564v-184h-502q36 -57 86 -99q116 -96 293 -96q149 0 282 45q68 25 107 47 v-286q-44 -25 -107 -47q-141 -45 -313 -45q-354 0 -559 239q-90 107 -137 242h-195z" />
<glyph unicode="&#x2122;" horiz-adv-x="1597" d="M31 1239v195h563v-195h-184v-440h-195v440h-184zM676 799v635h287l112 -338h21l112 338h287v-635h-195v338h-20l-113 -338h-163l-113 338h-21v-338h-194z" />
<glyph unicode="&#x25fc;" horiz-adv-x="1044" d="M0 0v1044h1044v-1044h-1044z" />
</font>
</defs>
</svg>
